Поиск

2018 Harriet Tubman - The Terror End Of Beauty {Sunnyside} [24-44.1]

2018 Harriet Tubman - The Terror End Of Beauty {Sunnyside} [24-44.1]
Место записи:
Duro of Brooklyn, NY, USA
Дата издания диска:
23 ноября 2018
Издатель (лейбл):
Номер по каталогу:
SSC1536
Носитель:
WEB
Формат:
PCM
Тип рипа:
tracks
Контейнер:
FLAC (*.flac)
Количество каналов:
2.0
Разрядность/ЧД:
24/44,1
Битрейт аудио:
lossless
Время звучания:
00:45:28
Наличие сканов:
только обложка
Страна-производитель диска (релиза):
USA
Релизёр (источник):
M0p94ok
Лог проверки качества
foobar2000 1.3.16 / Dynamic Range Meter 1.1.1
log date: 2019-06-05 18:04:41

--------------------------------------------------------------------------------
Analyzed: Harriet Tubman / The Terror End Of Beauty
--------------------------------------------------------------------------------

DR         Peak         RMS     Duration Track
--------------------------------------------------------------------------------
DR7       -0.50 dB    -8.51 dB      5:50 01-Farther Unknown
DR9       -0.49 dB   -11.03 dB      4:31 02-3000 Worlds
DR7       -0.43 dB    -8.20 dB      5:02 03-The Green Book Blues
DR7       -0.50 dB    -9.18 dB      5:42 04-Unseen Advance Of The Aquifarian
DR7       -0.49 dB    -8.17 dB      3:01 05-Prototaxite
DR11      -0.48 dB   -14.35 dB      2:29 06-Drumtion
DR7       -0.50 dB    -9.03 dB      6:18 07-Redemption Song
DR9       -0.49 dB   -11.16 dB      3:02 08-Five Points
DR6       -0.49 dB    -8.71 dB      6:33 09-The Terror End Of Beauty
DR9       -0.50 dB   -12.03 dB      3:06 10-Tuljapur Handprint
--------------------------------------------------------------------------------

Number of tracks:  10
Official DR value: DR8

Samplerate:        44100 Hz
Channels:          2
Bits per sample:   24
Bitrate:           1326 kbps
Codec:             FLAC
================================================================================
No seeders - write personal message to M0p94ok. Any questions - support@pro-jazz.com.
Нет сидеров - пишите в личку M0p94ok. Есть вопросы - support@pro-jazz.com
23:37
85
Нет комментариев. Ваш будет первым!