Поиск

2017 T-Square - Rebirth {Orange Lady} [DSD64]

2017 T-Square - Rebirth {Orange Lady} [DSD64]
Стили:
Дата издания диска:
26 апреля 2017
Номер по каталогу:
OLCH-10007X
Битрейт аудио:
lossless

Треклист:

1. Rebirth  04:08
2. Kanata E  05:22
3. Splash Brothers  05:19
4. Little Violet  04:52
5. Nothing I Can Say  04:29
6. Season of Gold  05:04
7. Trip!  04:59
8. Drops of Happiness  04:30
9. Change by Change  05:19

Доп. инфо:

Формат записи/Источник записи: [DSD][OF]
Наличие водяных знаков: Нет
Год издания диска: 2017
Издатель (лейбл): Orange Lady
Продолжительность: 00:44:08
Наличие сканов в содержимом раздачи: Только обложка альбома

Контейнер: DFF (*.dff)
Тип рипа: tracks
Разрядность: 64(2,8 MHz/1 Bit)
Формат: DSD
Количество каналов: 2.0

Источник: mora.jp

Лог проверки качества
foobar2000 1.6.4 / Dynamic Range Meter 1.1.1
log date: 2021-02-28 12:16:09

--------------------------------------------------------------------------------
Analyzed: T-SQUARE / REBIRTH
--------------------------------------------------------------------------------

DR         Peak         RMS     Duration Track
--------------------------------------------------------------------------------
DR9       -4.05 dB   -14.98 dB      4:08 01-REBIRTH
DR11      -4.83 dB   -16.79 dB      5:22 02-彼方へ
DR10      -4.85 dB   -16.18 dB      5:20 03-SPLASH BROTHERS
DR11      -6.07 dB   -18.56 dB      4:53 04-LITTLE VIOLET
DR10      -6.46 dB   -18.63 dB      4:30 05-NOTHING I CAN SAY
DR10      -4.12 dB   -15.78 dB      5:04 06-SEASON OF GOLD
DR12      -4.45 dB   -17.66 dB      4:59 07-TRIP!
DR12      -4.26 dB   -18.25 dB      4:30 08-DROPS OF HAPPINESS
DR10      -5.10 dB   -17.20 dB      5:22 09-CHANGE BY CHANGE
--------------------------------------------------------------------------------

Number of tracks:  9
Official DR value: DR11

Samplerate:        2822400 Hz / PCM Samplerate: 352800 Hz
Channels:          2
Bits per sample:   1
Bitrate:           5645 kbps
Codec:             DSD64
================================================================================
Приватный:
Нет (DHT включён)
Размер:
1.74 Гб (1,868,951,901 байт) » файлов: 11
Участники:
0 раздают, 0 качают (0 участников всего)
Внешние участники:
8 раздают, 2 качают (10 участников всего) [ Обновить ]
No seeders - write personal message to M0p94ok. Any questions - support@pro-jazz.com.
Нет сидеров - пишите в личку M0p94ok. Есть вопросы - support@pro-jazz.com
09:20
34
Нет комментариев. Ваш будет первым!