Поиск

2018 Hakuei Kim - Resonance {Universal} [24-88,2]

2018 Hakuei Kim - Resonance {Universal} [24-88,2]
Стили:
Издатель (лейбл):
Треклист:

Формат записи/Источник записи: [TR24][OF]
Наличие водяных знаков: Нет
Год издания/переиздания диска: 2018
Продолжительность: 73:18
Контейнер: FLAC (*.flac)
Тип рипа: tracks
Разрядность: 24/88,2
Формат: PCM
Количество каналов: 2.0
Наличие сканов в содержимом раздачи: Только обложка альбома
Источник: qobuz.com

Треклист:
01. Waltzing Matilda (3:50)
02. White Forest (3:02)
03. Take Five (7:14)
04. Moon River (9:08)
05. Improvisation “N And M” (4:03)
06. A Lotus On Irish Streams (3:32)
07. What Is This Thing Called Love? (4:29)
08. Delayed Resolution (8:46)
09. Coffee Cup (1:42)
10. The Concert (4:53)
11. White Forest (1:29)
12. The Streets Of Detroit (5:06)
13. Land Of The Long White Cloud (7:55)
14. Improvisation “Get Me Out Of Here” (1:56)
15. A Night In The Castle City (6:13)

 
Лог проверки качества
foobar2000 1.3.9 / Dynamic Range Meter 1.1.1
log date: 2018-01-18 08:16:01
--------------------------------------------------------------------------------
Analyzed: Hakuei Kim / Resonance
--------------------------------------------------------------------------------
DR         Peak         RMS     Duration Track
--------------------------------------------------------------------------------
DR14      -0.87 dB   -19.72 dB      3:50 01-Waltzing Matilda
DR14      -0.20 dB   -19.19 dB      3:02 02-White Forest
DR12      -0.20 dB   -16.16 dB      7:14 03-Take Five
DR14      -0.20 dB   -19.75 dB      9:08 04-Moon River
DR17      -0.20 dB   -24.86 dB      4:03 05-Improvisation “N And M”
DR13      -0.20 dB   -16.98 dB      3:32 06-A Lotus On Irish Streams
DR13      -3.60 dB   -19.93 dB      4:29 07-What Is This Thing Called Love?
DR14      -0.20 dB   -18.62 dB      8:46 08-Delayed Resolution
DR12      -0.62 dB   -16.63 dB      1:42 09-Coffee Cup
DR11      -0.20 dB   -16.34 dB      4:53 10-The Concert
DR12      -0.20 dB   -17.20 dB      1:29 11-White Forest
DR12      -0.20 dB   -14.94 dB      5:06 12-The Streets Of Detroit
DR13      -0.20 dB   -18.39 dB      7:55 13-Land Of The Long White Cloud
DR11      -5.62 dB   -19.86 dB      1:56 14-Improvisation “Get Me Out Of Here”
DR14      -0.88 dB   -19.14 dB      6:13 15-A Night In The Castle City
--------------------------------------------------------------------------------
Number of tracks:  15
Official DR value: DR13
Samplerate:        88200 Hz
Channels:          2
Bits per sample:   24
Bitrate:           2058 kbps
Codec:             FLAC
================================================================================

 

Скачивание доступно после регистрации!!
Приватный:
Нет (DHT включён)
Размер:
1.05 Гб (1,131,673,617 байт) » файлов: 18
Участники:
1 раздают, 0 качают (1 участников всего)
Внешние участники:
3 раздают, 1 качают (4 участников всего) [ Обновить ]
23:59
176
Нет комментариев. Ваш будет первым!