Поиск

2018 Tommy Emmanuel, C.G.P. - Accomplice One {Mascot} [24-48]

2018 Tommy Emmanuel, C.G.P. - Accomplice One {Mascot} [24-48]
Издатель (лейбл):

Состав:
  • Will Barrow Piano
  • Brad Benge Bass (Upright), Bowed Double Bass, Engineer, Guitar (Bass), Mixing, Percussion, Programming, Vocals (Background)
  • Pat Bergeson Harmonica
  • Suzy Bogguss Vocals
  • Clive Carroll Arranger, Guitar (Acoustic)
  • Rodney Crowell Composer, Guitar (Acoustic), Vocals
  • Charlie Cushman Banjo
  • Jerry Douglas Dobro
  • Rachel Emmanuel Vocals
  • Tommy Emmanuel Arranger, Composer, Cover Art Concept, Drums, Fender Telecaster, Guitar (Acoustic), Guitar (Baritone), Guitar (Bass), Guitar (Electric), Percussion, Producer, Vocals, Vocals (Background)
  • David Grisman Mandolin
  • Jason Isbell Vocals
  • Mark Knopfler Composer, Guitar (Acoustic), Vocals
  • Jack Pearson, Vinny Raniolo Guitar (Acoustic)
  • Jay Rolls, Roy Rositas, Mike Horner, Donivan Cowart, Stephen Law Engineer
  • Jake Shimabukuro Ukulele
  • Amanda Shires Fiddle, Vocals (Background)
  • JD Simo Guitar (Electric), Slide Guitar, Vocals
  • Ricky Skaggs Mandolin, Vocals
  • Bryan Sutton, Frank Vignola, Jorma Kaukonen Guitar (Acoustic)

Формат записи/Источник записи: [TR24][OF]
Наличие водяных знаков: Нет
Год издания/переиздания диска: 19 января 2018
Продолжительность: 63:46
Наличие сканов в содержимом раздачи: Только обложка альбома
Контейнер: FLAC (*.flac)
Тип рипа: tracks
Разрядность: 24/48
Формат: PCM
Количество каналов: 2.0
Источник: qobuz.com

Треклист:
01. Deep River Blues (feat. Jason Isbell) (3:28)
02. Song And Dance Man (feat. Ricky Skaggs) (3:21)
03. Saturday Night Shuffle (feat. Jorma Kaukonen & Pat Bergeson) (2:34)
04. Wheelin' & Dealin' (feat. Jd Simo & Charlie Cushman) (2:52)
05. C-Jam Blues (feat. David Grisman & Bryan Sutton) (4:12)
06. (Sittin' On) The Dock Of The Bay [feat. Jd Simo] (4:50)
07. Borderline (feat. Amanda Shires) (5:19)
08. You Don't Want To Get You One Of Those (feat. Mark Knopfler) (2:51)
09. Keepin' It Reel (feat. Clive Carroll) (5:01)
10. Looking Forward To The Past (feat. Rodney Crowell) (4:25)
11. Purple Haze (feat. Jerry Douglas) (4:04)
12. Rachel's Lullaby (feat. Jake Shimabukuro) (3:13)
13. Djangology (feat. Frank Vignola & Vinny Raaniolo) (3:26)
14. Watson Blues (feat. David Grisman & Bryan Sutton) (5:30)
15. Tittle Tattle (feat. Jack Pearson) (5:13)
16. The Duke's Message (feat. Suzy Bogguss) (3:26)

 
Лог проверки качества
foobar2000 1.3.9 / Dynamic Range Meter 1.1.1
log date: 2018-01-19 08:41:16
--------------------------------------------------------------------------------
Analyzed: Tommy Emmanuel / Accomplice One
--------------------------------------------------------------------------------
DR         Peak         RMS     Duration Track
--------------------------------------------------------------------------------
DR7       -3.20 dB   -11.34 dB      3:28 01-Deep River Blues (feat. Jason Isbell)
DR6       -3.47 dB   -10.81 dB      3:21 02-Song And Dance Man (feat. Ricky Skaggs)
DR8       -3.58 dB   -13.66 dB      2:34 03-Saturday Night Shuffle (feat. Jorma Kaukonen & Pat Bergeson)
DR7       -3.47 dB   -11.51 dB      2:52 04-Wheelin' & Dealin' (feat. Jd Simo & Charlie Cushman)
DR8       -3.47 dB   -13.57 dB      4:12 05-C-Jam Blues (feat. David Grisman & Bryan Sutton)
DR8       -3.47 dB   -12.48 dB      4:50 06-(Sittin' On) The Dock Of The Bay [feat. Jd Simo]
DR7       -3.03 dB   -11.85 dB      5:19 07-Borderline (feat. Amanda Shires)
DR8       -3.47 dB   -14.47 dB      2:51 08-You Don't Want To Get You One Of Those (feat. Mark Knopfler)
DR8       -3.47 dB   -13.59 dB      5:01 09-Keepin' It Reel (feat. Clive Carroll)
DR5       -3.47 dB   -10.73 dB      4:25 10-Looking Forward To The Past (feat. Rodney Crowell)
DR7       -3.47 dB   -12.30 dB      4:04 11-Purple Haze (feat. Jerry Douglas)
DR12      -3.47 dB   -17.50 dB      3:13 12-Rachel's Lullaby (feat. Jake Shimabukuro)
DR9       -3.47 dB   -14.67 dB      3:26 13-Djangology (feat. Frank Vignola & Vinny Raaniolo)
DR9       -3.47 dB   -14.82 dB      5:30 14-Watson Blues (feat. David Grisman & Bryan Sutton)
DR8       -3.03 dB   -13.94 dB      5:13 15-Tittle Tattle (feat. Jack Pearson)
DR8       -3.47 dB   -14.04 dB      3:26 16-The Duke's Message (feat. Suzy Bogguss)
--------------------------------------------------------------------------------
Number of tracks:  16
Official DR value: DR8
Samplerate:        48000 Hz
Channels:          2
Bits per sample:   24
Bitrate:           1554 kbps
Codec:             FLAC
================================================================================

 

Приватный:
Нет (DHT включён)
Размер:
755.85 Мб (792,569,441 байт) » файлов: 19
Участники:
1 раздают, 0 качают (1 участников всего)
Внешние участники:
--- [ Обновить ]
00:27
71
RSS
Нет комментариев. Ваш будет первым!