Поиск

2018 Pierre de Bethmann Trio - Essais Volume 2 {ALEA} [24-96]

2018 Pierre de Bethmann Trio - Essais Volume 2 {ALEA} [24-96]
Стили:

Треклист:

Формат записи/Источник записи: [TR24][OF]
Наличие водяных знаков: Нет
Год издания/переиздания диска: 2018
Жанр: Jazz, Contemporary Jazz
Издатель (лейбл): ALEA
Продолжительность: 00:53:57
Наличие сканов в содержимом раздачи: Буклет PDF
Источник (релизер): 7digital
Контейнер: FLAC (*.flac)
Тип рипа: tracks
Разрядность: 24/96
Формат: PCM
Количество каналов: 2.0

Треклист:
01. Miss Ann
02. Forlane
03. Começar de Novo
04. Je bois
05. Conception
06. Chant des partisans
07. I Remember You
08. Lascia la Spina
09. You Don't Know What Love Is
10. Belle-Île-en-mer, Marie-Galante

 
Лог проверки качества
foobar2000 1.1.10 / Dynamic Range Meter 1.1.1
log date: 2018-01-13 19:51:34
--------------------------------------------------------------------------------
Analyzed: Pierre de Bethmann Trio / Essais Volume 2
--------------------------------------------------------------------------------
DR         Peak         RMS     Duration Track
--------------------------------------------------------------------------------
DR10      -1.10 dB   -13.46 dB      4:07 ?-Miss Ann
DR11      -1.10 dB   -15.26 dB      6:13 ?-Forlane
DR9       -1.10 dB   -13.96 dB      5:40 ?-Começar de Novo
DR12      -1.10 dB   -16.32 dB      5:11 ?-Je bois
DR8       -1.10 dB   -11.33 dB      3:40 ?-Conception
DR8       -1.10 dB   -13.92 dB      7:30 ?-Chant des partisans
DR13      -1.10 dB   -15.90 dB      3:54 ?-I Remember You
DR10      -1.10 dB   -13.94 dB      5:41 ?-Lascia la Spina
DR10      -1.10 dB   -13.41 dB      5:58 ?-You Don't Know What Love Is
DR9       -1.10 dB   -11.89 dB      6:06 ?-Belle-Île-en-mer, Marie-Galante
--------------------------------------------------------------------------------
Number of tracks:  10
Official DR value: DR10
Samplerate:        96000 Hz
Channels:          2
Bits per sample:   24
Bitrate:           2833 kbps
Codec:             FLAC
================================================================================

 

Состав:
  • Pierre de Bethmann piano
  • Sylvain Romano bass
  • Tony Rabeson drums
Download available for power users only.
22:36
582
Нет комментариев. Ваш будет первым!