Поиск

2018 Géraud Portal - Let My Children Hear Mingus {jazz family} [24-96]

2018 Géraud Portal - Let My Children Hear Mingus {jazz family} [24-96]
Стили:
Издатель (лейбл):

Состав:
  • Géraud Portal - b
  • Quentin Ghomari - tp
  • César Poirier - as
  • Luigi Grasso - sax
  • Vahagn Hayrapetyan - p
  • Kush Abadey - d

Формат записи/Источник записи: [TR24][OF]
Наличие водяных знаков: Нет
Год издания/переиздания диска: 2018
Продолжительность: 01:32:29
Наличие сканов в содержимом раздачи: Только обложка альбома
Контейнер: FLAC (*.flac)
Тип рипа: tracks
Разрядность: 24/96
Формат: PCM
Количество каналов: 2.0
Источник: qobuz.com

Треклист:
Disc 1 (43:00)
01. Moanin' (11:16)
02. Orange Was The Color Of Her Dress Then Blue Silk (10:46)
03. Duke's Choice (2:41)
04. Fables Of Faubus (14:58)
05. Paris In Blue (3:19)
Disc 2 (49:29)
01. Haitian Fight Song (10:30)
02. The Shoes Of The Fisherman's Wife Are Some Jive Ass Slippers (10:26)
03. Portraits (1:16)
04. Parkeriana (15:03)
05. Oh Lord Don't Let Them Drop That Atomic Bomb On Me (12:14)

 
Лог проверки качества
foobar2000 1.3.9 / Dynamic Range Meter 1.1.1
log date: 2018-05-06 20:49:15
--------------------------------------------------------------------------------
Analyzed: Géraud Portal / Let My Children Hear Mingus (Disc 1)
--------------------------------------------------------------------------------
DR         Peak         RMS     Duration Track
--------------------------------------------------------------------------------
DR9       -0.31 dB   -11.05 dB     11:16 01-Moanin'
DR10      -0.31 dB   -12.29 dB     10:46 02-Orange Was The Color Of Her Dress Then Blue Silk
DR11      -0.89 dB   -15.83 dB      2:41 03-Duke's Choice
DR9       -0.31 dB   -12.81 dB     14:58 04-Fables Of Faubus
DR10      -0.31 dB   -12.12 dB      3:19 05-Paris In Blue
--------------------------------------------------------------------------------
Number of tracks:  5
Official DR value: DR10
Samplerate:        96000 Hz
Channels:          2
Bits per sample:   24
Bitrate:           3085 kbps
Codec:             FLAC
================================================================================
****************************************************************************************************
foobar2000 1.3.9 / Dynamic Range Meter 1.1.1
log date: 2018-05-06 20:54:18
--------------------------------------------------------------------------------
Analyzed: Géraud Portal / Let My Children Hear Mingus (Disc 2)
--------------------------------------------------------------------------------
DR         Peak         RMS     Duration Track
--------------------------------------------------------------------------------
DR11      -0.31 dB   -14.18 dB     10:30 01-Haitian Fight Song
DR9       -0.31 dB   -12.96 dB     10:26 02-The Shoes Of The Fisherman's Wife Are Some Jive Ass Slippers
DR9       -1.00 dB   -12.32 dB      1:16 03-Portraits
DR9       -0.31 dB   -11.65 dB     15:03 04-Parkeriana
DR9       -0.31 dB   -13.36 dB     12:14 05-Oh Lord Don't Let Them Drop That Atomic Bomb On Me
--------------------------------------------------------------------------------
Number of tracks:  5
Official DR value: DR10
Samplerate:        96000 Hz
Channels:          2
Bits per sample:   24
Bitrate:           2926 kbps
Codec:             FLAC
================================================================================

 

Приватный:
Нет (DHT включён)
Размер:
2.00 Гб (2,142,507,195 байт) » файлов: 16
Участники:
0 раздают, 0 качают (0 участников всего)
Внешние участники:
--- [ Обновить ]
16:04
41
RSS
Нет комментариев. Ваш будет первым!