Поиск

2018 Eddie Henderson - Be Cool {Smoke Sessions} [24-96]

2018 Eddie Henderson - Be Cool {Smoke Sessions} [24-96]
Стили:

Треклист:

Формат записи/Источник записи: [TR24][OF]
Наличие водяных знаков: Нет
Год издания/переиздания диска: 2018
Издатель (лейбл): Smoke Sessions Records
Продолжительность: 77:01
Наличие сканов в содержимом раздачи: Только обложка альбома
Контейнер: FLAC (*.flac)
Тип рипа: tracks
Разрядность: 24/96
Формат: PCM
Количество каналов: 2.0
Источник: qobuz.com

Треклист:
01. Smoke Screen (4:38)
02. Be Cool (5:01)
03. After Youve Gone (7:04)
04. Loft Funk (7:00)
05. Fran Dance (6:25)
06. The Moontrane (5:26)
07. Naima (7:07)
08. The Sand Castle Head Hunter (6:44)
09. Nightride (8:17)
10. Toys (6:38)
11. Easy Living (5:44)
12. Dla Juzi (6:56)

 
Лог проверки качества
foobar2000 1.3.9 / Dynamic Range Meter 1.1.1
log date: 2018-05-07 15:10:51
--------------------------------------------------------------------------------
Analyzed: Eddie Henderson / Be Cool
--------------------------------------------------------------------------------
DR         Peak         RMS     Duration Track
--------------------------------------------------------------------------------
DR8       -1.07 dB   -11.15 dB      4:38 01-Smoke Screen
DR10      -1.07 dB   -12.64 dB      5:01 02-Be Cool
DR8       -1.07 dB   -12.28 dB      7:04 03-After Youve Gone
DR8       -1.07 dB   -11.11 dB      7:00 04-Loft Funk
DR8       -1.07 dB   -11.66 dB      6:25 05-Fran Dance
DR10      -1.07 dB   -12.91 dB      5:26 06-The Moontrane
DR9       -1.07 dB   -11.86 dB      7:07 07-Naima
DR8       -1.07 dB   -10.99 dB      6:44 08-The Sand Castle Head Hunter
DR10      -1.07 dB   -13.21 dB      8:17 09-Nightride
DR10      -1.07 dB   -13.54 dB      6:38 10-Toys
DR11      -1.07 dB   -13.69 dB      5:44 11-Easy Living
DR10      -1.07 dB   -14.33 dB      6:56 12-Dla Juzi
--------------------------------------------------------------------------------
Number of tracks:  12
Official DR value: DR9
Samplerate:        96000 Hz
Channels:          2
Bits per sample:   24
Bitrate:           2580 kbps
Codec:             FLAC
================================================================================

 

Состав:
По всем вопросам пишите личное сообщение пользователю M0p94ok.
15:32
545
Нет комментариев. Ваш будет первым!