Поиск

2018 Van Morrison And Joey DeFrancesco - You're Driving Me Crazy {Legacy} [24-96]

2018 Van Morrison And Joey DeFrancesco - You're Driving Me Crazy {Legacy} [24-96]
Издатель (лейбл):

Состав:
  • Joey DeFrancesco Keyboards, Organ, Producer, Trumpet, Vocals (Background)
  • Shana Morrison Vocals (Background)
  • Van Morrison Composer, Harmonica, Producer, Sax (Alto), Vocals
  • Michael Ode Drums, Percussion
  • Troy Roberts Sax (Soprano), Sax (Tenor)
  • Jim Stern Engineer, Mastering, Remix Engineer
  • Dan Wilson Guitar

Формат записи/Источник записи: [TR24][OF]
Наличие водяных знаков: Нет
Дата издания/переиздания диска: 27 апреля 2018
Место записи диска: Intern Mat Reagan
Издатель (лейбл): Legacy Recordings
Продолжительность: 01:10:45
Контейнер: FLAC (*.flac)
Тип рипа: tracks
Разрядность: 24/96
Формат: PCM
Количество каналов: 2.0
Наличие сканов в содержимом раздачи: Только обложка альбома
Источник: qobuz.com

Треклист:
01. Miss Otis Regrets (5:16)
02. Hold It Right There (4:09)
03. All Saints Day (3:05)
04. The Way Young Lovers Do (4:13)
05. The Things I Used to Do (5:57)
06. Travelin' Light (4:18)
07. Close Enough For Jazz (4:45)
08. Goldfish Bowl (7:06)
09. Evening Shadows (3:22)
10. Magic Time (5:14)
11. You're Driving Me Crazy (4:47)
12. Everyday I Have The Blues (5:38)
13. Have I Told You Lately? (4:52)
14. Sticks And Stones (2:47)
15. Celtic Swing (5:16)

 
Лог проверки качества
foobar2000 1.3.9 / Dynamic Range Meter 1.1.1
log date: 2018-05-06 23:44:22
--------------------------------------------------------------------------------
Analyzed: Van Morrison And Joey DeFrancesco / You're Driving Me Crazy
--------------------------------------------------------------------------------
DR         Peak         RMS     Duration Track
--------------------------------------------------------------------------------
DR10      -0.50 dB   -12.58 dB      5:16 01-Miss Otis Regrets
DR10      -0.50 dB   -12.49 dB      4:09 02-Hold It Right There
DR9       -0.50 dB   -12.25 dB      3:05 03-All Saints Day
DR10      -0.50 dB   -12.02 dB      4:13 04-The Way Young Lovers Do
DR11      -0.50 dB   -13.63 dB      5:57 05-The Things I Used to Do
DR10      -0.50 dB   -12.77 dB      4:18 06-Travelin' Light
DR11      -0.50 dB   -13.56 dB      4:45 07-Close Enough For Jazz
DR11      -0.50 dB   -13.70 dB      7:06 08-Goldfish Bowl
DR11      -0.50 dB   -13.30 dB      3:22 09-Evening Shadows
DR11      -0.50 dB   -13.96 dB      5:14 10-Magic Time
DR9       -0.50 dB   -12.74 dB      4:47 11-You're Driving Me Crazy
DR10      -0.50 dB   -13.72 dB      5:38 12-Everyday I Have The Blues
DR10      -0.50 dB   -13.47 dB      4:52 13-Have I Told You Lately?
DR9       -0.50 dB   -11.29 dB      2:47 14-Sticks And Stones
DR9       -0.50 dB   -12.70 dB      5:16 15-Celtic Swing
--------------------------------------------------------------------------------
Number of tracks:  15
Official DR value: DR10
Samplerate:        96000 Hz
Channels:          2
Bits per sample:   24
Bitrate:           2967 kbps
Codec:             FLAC
================================================================================

 

Приватный:
Нет (DHT включён)
Размер:
1.47 Гб (1,576,323,562 байт) » файлов: 18
Участники:
0 раздают, 0 качают (0 участников всего)
Внешние участники:
--- [ Обновить ]
Скорость:
0/c 18.04 Кб/c
00:10
59
RSS
Нет комментариев. Ваш будет первым!