Поиск

2018 Espen Eriksen Trio with Andy Sheppard - Perfectly Unhappy {Rune Grammofon}

2018 Espen Eriksen Trio with Andy Sheppard - Perfectly Unhappy {Rune Grammofon}
Стили:

Состав:
  • Andy Sheppard – saxophone
  • Espen Eriksen – piano
  • Lars Tormod Jenset - bass
  • Andreas Bye - drums

Год издания:2018
Издатель (лейбл): Rune Grammofon
Номер по каталогу: RCD 2199
Страна исполнителя:Norway/UK
Аудиокодек: FLAC (*.flac)
Тип рипа: tracks
Битрейт аудио:lossless
Продолжительность: 42:45
Источник (релизер): WEB
Наличие сканов: нет

Треклист:
1. Above The Horizon
2. 1974
3. Perfectly Unhappy
4. Indian Summer
5. Suburban Folk Song
6. Naked Trees
7. Revisited
8. Home

Espen Eriksen Trio with Andy Sheppard
 
Лог проверки качества
AUDIOCHECKER v2.0 beta (build 457) - by Dester - opdester@freemail.hu
~~~~~~~~~~~~~~~~~~~~~~~~~~~~~~~~~~
-=== DO NOT EDIT THIS FILE! ===-
Path: ...\Espen Eriksen Trio & Andy Sheppard - Perfectly Unhappy (2018) [FLAC]
1 -=- 01 - Above The Horizon.flac -=- CDDA (100%)
2 -=- 02 - 1974.flac -=- CDDA (100%)
3 -=- 03 - Perfectly Unhappy.flac -=- CDDA (100%)
4 -=- 04 - Indian Summer.flac -=- CDDA (100%)
5 -=- 05 - Suburban Folk Song.flac -=- CDDA (100%)
6 -=- 06 - Naked Trees.flac -=- CDDA (100%)
7 -=- 07 - Revisited.flac -=- CDDA (100%)
8 -=- 08 - Home.flac -=- CDDA (100%)
Summary 100,00% CDDA
204790980
••••••••••
foobar2000 1.3.12 / Замер динамического диапазона (DR) 1.1.1
Дата отчёта:  2018-05-13 11:07:15
--------------------------------------------------------------------------------
Анализ:   Espen Eriksen Trio & Andy Sheppard / Perfectly Unhappy
--------------------------------------------------------------------------------
DR         Пики         RMS           Продолжительность трека
--------------------------------------------------------------------------------
DR7       -0.61 дБ   -10.77 дБ      5:43 01-Above The Horizon
DR11      -0.69 дБ   -13.83 дБ      6:04 02-1974
DR11      -0.69 дБ   -13.78 дБ      4:42 03-Perfectly Unhappy
DR8       -0.68 дБ   -11.94 дБ      5:16 04-Indian Summer
DR8       -0.69 дБ   -11.08 дБ      5:10 05-Suburban Folk Song
DR9       -0.66 дБ   -12.72 дБ      5:37 06-Naked Trees
DR9       -0.69 дБ   -13.52 дБ      6:19 07-Revisited
DR11      -0.70 дБ   -15.09 дБ      3:55 08-Home
--------------------------------------------------------------------------------
Количество треков: 8
Реальные значения DR: DR9
Частота:   44100 Гц
Каналов:   2
Разрядность:   16
Битрейт:   708 кбит/с
Кодек:   FLAC
================================================================================

 

Скачивание доступно после регистрации!!
Приватный:
Нет (DHT включён)
Размер:
228.23 Мб (239,315,503 байт) » файлов: 11
Участники:
3 раздают, 0 качают (3 участников всего)
Внешние участники:
--- [ Обновить ]
18:21
54
RSS
Нет комментариев. Ваш будет первым!