Поиск

2018 Esbjorn Svensson Trio (E.S.T.) - Live in London (2CD) {ACT Music 9042-2}

2018 Esbjorn Svensson Trio (E.S.T.) - Live in London (2CD) {ACT Music 9042-2}
Издатель (лейбл):

Состав:
  • Esbjörn Svensson - piano
  • Dan Berglund - double bass
  • Magnus Öström - drums

Год издания:2018
Номер по каталогу: ACT 9042-2
Страна исполнителя: Sweden
Аудиокодек: FLAC (*.flac)
Тип рипа: tracks
Битрейт аудио: lossless
Продолжительность: 61:34 + 44:20
Источник (релизер): WEB
Наличие сканов: front

Треклист:
CD 1
1. Tide of Trepidation
2. Eighty-Eight Days in My Veins
3. Viaticum
4. Mingle in the Mincing-Machine
5. In the Tail of Her Eye
6. The Unstable Table & the Infamous Fable
CD 2
1. When God Created the Coffeebreak
2. Behind the Yashmak
3. Believe, Beleft, Below
4. Spunky Sprawl

 
Лог проверки качества
AUDIOCHECKER v2.0 beta (build 457) - by Dester - opdester@freemail.hu
~~~~~~~~~~~~~~~~~~~~~~~~~~~~~~~~~~
-=== DO NOT EDIT THIS FILE! ===-
Path: ...\CD1
1 -=- 01 - Tide of Trepidation.flac -=- CDDA (100%)
2 -=- 02 - Eighty-Eight Days in My Veins.flac -=- CDDA (100%)
3 -=- 03 - Viaticum.flac -=- CDDA (100%)
4 -=- 04 - Mingle in the Mincing-Machine.flac -=- CDDA (100%)
5 -=- 05 - In the Tail of Her Eye.flac -=- CDDA (100%)
6 -=- 06 - The Unstable Table & the Infamous Fable.flac -=- CDDA (100%)
Summary 100,00% CDDA
56617540
AUDIOCHECKER v2.0 beta (build 457) - by Dester - opdester@freemail.hu
~~~~~~~~~~~~~~~~~~~~~~~~~~~~~~~~~~
-=== DO NOT EDIT THIS FILE! ===-
Path: ...\CD2
1 -=- 01 - When God Created the Coffeebreak.flac -=- CDDA (100%)
2 -=- 02 - Behind the Yashmak.flac -=- CDDA (100%)
3 -=- 03 - Believe, Beleft, Below.flac -=- CDDA (100%)
4 -=- 04 - Spunky Sprawl.flac -=- CDDA (100%)
Summary 100,00% CDDA
109654980
••••••••••
foobar2000 1.3.12 / Замер динамического диапазона (DR) 1.1.1
Дата отчёта:  2018-05-12 09:11:45
--------------------------------------------------------------------------------
Анализ:   Esbjorn Svensson Trio / e.s.t. live in london
--------------------------------------------------------------------------------
DR         Пики         RMS           Продолжительность трека
--------------------------------------------------------------------------------
DR12      -0.38 дБ   -16.52 дБ      9:51 01-Tide of Trepidation
DR11       0.00 дБ   -14.57 дБ     10:17 02-Eighty-Eight Days in My Veins
DR13      -1.11 дБ   -19.66 дБ      6:56 03-Viaticum
DR10       0.00 дБ   -13.70 дБ     14:22 04-Mingle in the Mincing-Machine
DR14      -2.90 дБ   -21.69 дБ      7:13 05-In the Tail of Her Eye
DR10      -0.41 дБ   -15.23 дБ     12:55 06-The Unstable Table & the Infamous Fable
--------------------------------------------------------------------------------
Количество треков: 6
Реальные значения DR: DR12
Частота:   44100 Гц
Каналов:   2
Разрядность:   16
Битрейт:   762 кбит/с
Кодек:   FLAC
================================================================================
foobar2000 1.3.12 / Замер динамического диапазона (DR) 1.1.1
Дата отчёта:  2018-05-12 09:11:56
--------------------------------------------------------------------------------
Анализ:   Esbjorn Svensson Trio / e.s.t. live in london
--------------------------------------------------------------------------------
DR         Пики         RMS           Продолжительность трека
--------------------------------------------------------------------------------
DR11       0.00 дБ   -13.68 дБ      8:53 01-When God Created the Coffeebreak
DR10       0.00 дБ   -15.13 дБ     17:32 02-Behind the Yashmak
DR14      -1.56 дБ   -20.00 дБ      7:24 03-Believe, Beleft, Below
DR11       0.00 дБ   -14.24 дБ     10:31 04-Spunky Sprawl
--------------------------------------------------------------------------------
Количество треков: 4
Реальные значения DR: DR11
Частота:   44100 Гц
Каналов:   2
Разрядность:   16
Битрейт:   862 кбит/с
Кодек:   FLAC
================================================================================

 

Скачивание доступно после регистрации!!
Приватный:
Нет (DHT включён)
Размер:
598.87 Мб (627,961,842 байт) » файлов: 17
Участники:
3 раздают, 0 качают (3 участников всего)
Внешние участники:
--- [ Обновить ]
Скорость:
0/c 26.74 Кб/c
18:05
66
RSS
Нет комментариев. Ваш будет первым!