Поиск

2018 Bram de Looze - Switch The Stream {Outnote 628} [24-96]

2018 Bram de Looze - Switch The Stream {Outnote 628} [24-96]
Стили:
Дата записи диска:
июнь-июль 2018
Место записи:
Loft & Auditorium Piano's Maene, Ruiselede, Belgium
Дата издания диска:
7 ноября 2018
Номер по каталогу:
Outnote 628
Носитель:
WEB
Формат:
PCM
Тип рипа:
tracks
Контейнер:
FLAC (*.flac)
Количество каналов:
2.0
Разрядность/ЧД:
24/96
Формат записи/Источник записи:
[TR24][OF]
Время звучания:
01:00:39
Наличие сканов:
буклет pdf
Наличие водяных знаков:
нет
Страна-производитель диска (релиза):
Belgium
Релизёр (источник):
M0p94ok
Треклист:

01. Knife & Stone  02:11
02. Avant 40 Beats  06:17
03. Hand Drops  09:06
04. The Partials  02:17
05. Geese On The Move  07:10
06. Birth To Presence  03:19
07. Vexations  05:45
08. Flyway  05:11
09. Break Of Day  05:13
10. Present  08:32
11. Sense Of Air  05:38

Лог проверки качества
foobar2000 1.3.16 / Dynamic Range Meter 1.1.1
log date: 2018-11-09 02:18:26

--------------------------------------------------------------------------------
Analyzed: Bram de Looze / Switch The Stream
--------------------------------------------------------------------------------

DR         Peak         RMS     Duration Track
--------------------------------------------------------------------------------
DR13      -2.65 dB   -19.69 dB      2:11 01-Knife & Stone
DR13      -1.63 dB   -18.86 dB      6:18 02-Avant 40 Beats
DR12      -2.03 dB   -19.36 dB      9:07 03-Hand Drops
DR12      -5.08 dB   -22.17 dB      2:18 04-The Partials
DR14      -1.00 dB   -17.38 dB      7:10 05-Geese On The Move
DR12      -2.14 dB   -18.69 dB      3:20 06-Birth To Presence
DR13      -2.72 dB   -19.79 dB      5:46 07-Vexations
DR15      -1.23 dB   -21.75 dB      5:11 08-Flyway
DR13      -2.10 dB   -20.80 dB      5:14 09-Break Of Day
DR14      -2.91 dB   -20.69 dB      8:32 10-Present
DR15      -1.03 dB   -21.47 dB      5:39 11-Sense Of Air
--------------------------------------------------------------------------------

Number of tracks:  11
Official DR value: DR13

Samplerate:        96000 Hz
Channels:          2
Bits per sample:   24
Bitrate:           1959 kbps
Codec:             FLAC
================================================================================
Приватный:
Нет (DHT включён)
Размер:
920.01 Мб (964,699,098 байт) » файлов: 14
Участники:
2 раздают, 1 качают (3 участников всего)
Внешние участники:
--- [ Обновить ]
Скорость:
0/c 1.42 Кб/c
Есть вопросы - пишите личное сообщение пользователю M0p94ok.
10:19
26
Нет комментариев. Ваш будет первым!