Поиск

1960 Gene Ammons - Boss Tenor (2006) {Concord} [24-44,1]

1960 Gene Ammons - Boss Tenor (2006) {Concord} [24-44,1]
Стили:
Издатель (лейбл):
Треклист:

01 - Hittin' The Jug 08:30
02 - Close Your Eyes 03:46
03 - My Romance 04:15
04 - Canadian Sunset 05:24
05 - Blue Ammons 04:57
06 - Confirmation 05:24
07 - Stompin' At The Savoy 03:31

Доп. инфо:

Формат записи/Источник записи: [TR24][OF]
Год издания/переиздания диска: 1960/2006
Продолжительность: 00:35:51
Наличие сканов в содержимом раздачи: Нет

Контейнер: FLAC (*.flac)
Тип рипа: tracks
Разрядность: 24/44,1
Количество каналов: 2.0

Источник (релизер): PROSTUDIOMASTERS

Лог проверки качества
foobar2000 1.3.16 / Dynamic Range Meter 1.1.1
log date: 2019-02-25 02:34:25

--------------------------------------------------------------------------------
Analyzed: Gene Ammons / Boss Tenor
--------------------------------------------------------------------------------

DR         Peak         RMS     Duration Track
--------------------------------------------------------------------------------
DR11       0.00 dB   -13.68 dB      8:31 01-Hittin' The Jug
DR11       0.00 dB   -12.58 dB      3:46 02-Close Your Eyes
DR11       0.00 dB   -13.95 dB      4:15 03-My Romance
DR12       0.00 dB   -14.27 dB      5:25 04-Canadian Sunset
DR12       0.00 dB   -14.22 dB      4:58 05-Blue Ammons
DR11       0.00 dB   -13.03 dB      5:25 06-Confirmation
DR11      -0.01 dB   -12.49 dB      3:31 07-Stompin' At The Savoy
--------------------------------------------------------------------------------

Number of tracks:  7
Official DR value: DR11

Samplerate:        44100 Hz
Channels:          2
Bits per sample:   24
Bitrate:           1600 kbps
Codec:             FLAC
===============================================================================
Приватный:
Нет (DHT включён)
Размер:
401.03 Мб (420,511,206 байт) » файлов: 11
Участники:
0 раздают, 18 качают (18 участников всего)
Внешние участники:
5 раздают, 1 качают (6 участников всего) [ Обновить ]
Скорость:
356.16 Кб/c 0/c
Есть вопросы - пишите личное сообщение пользователю M0p94ok.
22:32
24
Нет комментариев. Ваш будет первым!