Поиск

1957 Frank Sinatra - Christmas Dreaming (2019) {RevOla} [24-96]

1957 Frank Sinatra - Christmas Dreaming (2019) {RevOla} [24-96]
Стили:
Треклист:

01. White Christmas (3:27)
02. Jingle Bells (2:37)
03. O Little Town Of Bethlehem (3:06)
04. Have Yourself A Merry Little Christmas (2:38)
05. Christmas Dreaming (2:59)
06. Silent Night, Holy Night (3:17)
07. It Came Upon A Midnight Clear (3:30)
08. Adeste Fideles (O, Come All Ye Faithful) (2:40)
09. Santa Claus Is Comin' To Town (2:36)
10. Let It Snow! Let It Snow! Let It Snow! (2:37)

Доп. инфо:

Формат записи/Источник записи: [TR24][OF]
Наличие водяных знаков: Нет
Издание: Remastered
Год издания/переиздания диска: 1957/2019
Издатель (лейбл): RevOla Records
Продолжительность: 29:28
Наличие сканов в содержимом раздачи: Только обложка альбома

Контейнер: FLAC (*.flac)
Тип рипа: tracks
Разрядность: 24/96
Формат: PCM
Количество каналов: 2.0

Источник: qobuz.com

Лог проверки качества
foobar2000 1.3.9 / Dynamic Range Meter 1.1.1
log date: 2020-01-05 13:38:38

--------------------------------------------------------------------------------
Analyzed: Frank Sinatra / Christmas Dreaming
--------------------------------------------------------------------------------

DR         Peak         RMS     Duration Track
--------------------------------------------------------------------------------
DR10      -4.73 dB   -18.27 dB      3:27 01-White Christmas
DR10      -7.88 dB   -20.16 dB      2:37 02-Jingle Bells
DR11      -5.62 dB   -19.63 dB      3:06 03-O Little Town Of Bethlehem
DR12      -5.76 dB   -21.43 dB      2:38 04-Have Yourself A Merry Little Christmas
DR11      -6.19 dB   -20.56 dB      2:59 05-Christmas Dreaming
DR11      -6.06 dB   -20.90 dB      3:17 06-Silent Night, Holy Night
DR11      -5.94 dB   -20.13 dB      3:30 07-It Came Upon A Midnight Clear
DR11      -6.31 dB   -20.48 dB      2:40 08-Adeste Fideles (O, Come All Ye Faithful)
DR11      -4.82 dB   -18.75 dB      2:36 09-Santa Claus Is Comin' To Town
DR11      -5.65 dB   -18.94 dB      2:37 10-Let It Snow! Let It Snow! Let It Snow!
--------------------------------------------------------------------------------

Number of tracks:  10
Official DR value: DR11

Samplerate:        96000 Hz
Channels:          2
Bits per sample:   24
Bitrate:           1335 kbps
Codec:             FLAC
================================================================================
Приватный:
Нет (DHT включён)
Размер:
269.76 Мб (282,866,719 байт) » файлов: 14
Участники:
0 раздают, 0 качают (0 участников всего)
Внешние участники:
7 раздают, 2 качают (9 участников всего) [ Обновить ]
Есть вопросы - пишите личное сообщение пользователю M0p94ok.
19:11
18
Нет комментариев. Ваш будет первым!