Поиск

2015 John Finbury - Imaginário {Green Flash 5638541600} [24-96]

2015 John Finbury - Imaginário {Green Flash 5638541600} [24-96]
Дата издания диска:
11 августа 2015
Номер по каталогу:
Green Flash 5638541600
Носитель:
WEB
Формат:
PCM
Тип рипа:
tracks
Контейнер:
FLAC (*.flac)
Количество каналов:
2.0
Разрядность/ЧД:
24/96
Формат записи/Источник записи:
[TR24][OF]
Время звучания:
00:54:24
Наличие сканов:
только обложка
Наличие водяных знаков:
нет
Релизёр (источник):
M0p94ok
Треклист:

01. Marcella Camargo - A Chama Verde (The Green Flash) 04:10    
02. Marcella Camargo - Vem Me Contar (Come Talk to Me) 04:26    
03. Marcella Camargo - Dorme Meu Coração (My Heart is Sleeping) 03:28    
04. Claudio Ragazzi & Tim Ray - SambaDan 06:56    
05. Marcella Camargo - O Arqueiro (The Archer) 05:28    
06. Marcella Camargo - I Don't Know You Now 03:57    
07. Marcella Camargo - Somente Agora (Only Right Now) 04:18    
08. Claudio Ragazzi - Makonikey 03:24    
09. Marcella Camargo - Not To Worry 04:50    
10. Tim Ray - My Old Friend 06:30    
11. Marcella Camargo - Imaginário Nunca Mais (Imaginary Never Again) 06:20

Доп. инфо:

Пять композиций из этого альбома были отобраны судейской коллегией для 2015 American Songwriting Awards; все пять композиций были номинированы на получение награды, а "SambaDan" была удостоена награды в категории "Best Instrumental."

https://johnfinbury.bandcamp.com/releases

https://store.cdbaby.com/cd/johnfinbury2

Лог проверки качества
foobar2000 1.3.16 / Dynamic Range Meter 1.1.1
log date: 2018-11-05 17:29:02

--------------------------------------------------------------------------------
Analyzed: John Finbury, Claudio Ragazzi / Imaginário (1-2)
          John Finbury, Marcella Camargo / Imaginário (3-10)
          John Finbury, Tim Ray / Imaginário (11)
--------------------------------------------------------------------------------

DR         Peak         RMS     Duration Track
--------------------------------------------------------------------------------
DR9       -0.87 dB   -11.12 dB      6:57 04-Sambadan (Spanish Guitar)
DR10      -0.23 dB   -11.01 dB      3:25 08-Makonikey
DR11      -0.23 dB   -13.22 dB      4:10 01-A Chama Verde
DR9       -1.27 dB   -11.96 dB      4:27 02-Vem Me Contar
DR9       -0.63 dB   -11.80 dB      3:29 03-Dorme Meu Coração
DR10      -0.23 dB   -12.75 dB      5:28 05-O Arqueiro
DR10      -0.73 dB   -12.95 dB      3:58 06-I Don't Know You Now
DR9       -0.81 dB   -11.35 dB      4:18 07-Somente Agora
DR9       -0.23 dB   -11.19 dB      4:51 09-Not To Worry
DR9       -0.71 dB   -11.77 dB      6:20 11-Imaginario Nunca Mais
DR11      -0.62 dB   -13.18 dB      6:30 10-My Old Friend (Piano)
--------------------------------------------------------------------------------

Number of tracks:  11
Official DR value: DR10

Samplerate:        96000 Hz
Channels:          2
Bits per sample:   24
Bitrate:           2686 kbps
Codec:             FLAC
================================================================================
Приватный:
Нет (DHT включён)
Размер:
1.09 Гб (1,174,024,479 байт) » файлов: 13
Участники:
1 раздают, 0 качают (1 участников всего)
Внешние участники:
--- [ Обновить ]
Есть вопросы - пишите личное сообщение пользователю M0p94ok.
14:40
35
Нет комментариев. Ваш будет первым!