Вы используете незарегистрированную версию компонента "Вкладки"!

Поиск

1957 Frank Sinatra - A Swingin' Affair! (2019) {RevOla} [24-44,1]

1957 Frank Sinatra - A Swingin' Affair! (2019) {RevOla} [24-44,1]
Дата записи диска:
6 мая 1957
Место записи:
Capitol Studio A, Hollywood, Los Angeles
Издатель (лейбл):
Доп. инфо:

Контейнер: FLAC (*.flac)
Тип рипа: tracks
Разрядность: 24/44,1
Формат: PCM
Количество каналов: 2.0
Источник: qobuz.com

 
Полный состав участников записи

Tracks 1, 9, 14, 16:

26-November-1956 (Monday) - Hollywood. Mickey Mangano, Harry Edison, Shorty Sherock, Ray Linn (tpt); Juan Tizol, Murray McEachern, Dick Noel (tbn); George Roberts (b-tbn); Willie Schwartz, Harry Klee (alt); Jules Kinsler, James Williamson (ten); Joe Koch (bar); Victor Bay, Emo Neufeld, Alex Beller, Joe Stepansky, David Frisina, Eudice Shapiro, Harold Dicterow, Alex Murray, Kurt Dieterle, Lou Raderman (vln); Stanley Harris, Maxine Johnson, Alvin Dinkin (via); Eleanor Slatkin, Ennio Bolognini, Edgar Lustgarten (vlc); Kathryn Julye (harp); Bill Miller (p); Nick Bonney (g); Joe Comfort (b); Irving Cottler (d).

Tracks 2, 4, 5, 10:

Mickey Mangano, Conrad Gozzo, Harry Edison, Shorty Sherock (tpt); George Arus, Dick Noel, Ed Kusby (tbn); George Roberts (b-tbn); Willie Schwartz, Harry Klee (alt); Ted Nash, James Briggs (ten); Joe Koch (bar); Felix Slatkin, Paul Shure, Alex Beller, Emo Neufeld, Lou Raderman, Marshall Sosson, Mischa Russell, Nathan Ross, Victor Bay, Gerald Vinci (vln); Maxine Johnson, Alvin Dinkin, David Sterkin (vla); Eleanor Slatkin, Cy Bernard, Edgar Lustgarten (vlc); Kathryn Julye (harp); Bill Miller (p); Nick Bonney (g); Joe Comfort (b); Alvin Stoller (d).

Tracks 3, 6, 8:

Conrad Gozzo, Harry Edison, Mickey Mangano, Mannie Klein (tpt); George Arns, Dick Noel, Ed Kusby (tbn); George Roberts (b-tbn); Jack Dumont, Dominic Mumolo (alt); Don Raffell, Buck Skalak (ten); Paul Lawson (bar); Henry Hill, Alex Beller, Marshall Sosson, Felix Slatkin, Paul Shure, Erno Neufeld, Walter Edelstein, Jacques Gasselin, Nathan Ross, Dan Lube (vln); Maxine Johnson, Alvin Dinkin, David Sterkin (vla); Ennio Bolognini, Eleanor Slatkin, Cy Bernard (vlc); Kathryn Julye (harp); Bill Miller (p); Nick Bonney (g); Joe Comfort (b); Irving Cottler (d).

Track 7:

Ray Linn, Mannie Klein, Shorty Sherock, Harry Edison (tpt); Jimmy Priddy, Milt Bernhart, Ed Kusby (tbn); George Roberts (b-tbn); Willie Schwartz, Harry Klee (alt); Champ Webb, Babe Russin (ten); Chuck Gentry (bar); Felix Slatkin, Paul Shure, Mischa Russell, Harry Bluestone, Henry Hill, Marshall Sosson, Arnold Bdnick, Alex Beller, Victor Bay (vln); Alvin Dinkin, Maxine Johnson (via); Eleanor Slatkin, Cy Bernard, Ennio Bolognini (vlc); Helen Hutchinson (harp); Bill Miller (p); George Van Eps (g); Joe Comfort (b); Alvin Stoller (d); Marilyn Lewis, Alicia Adams, Allan Davies, Ralph Brewster, John Mann, Lee Gotch (voe [1]).

Tracks 11, 12, 13, 15

Pete Candoli, Harry Edison, Shorty Sherock, Ray Linn (tpt); Dick Nash, Tommy Pederson (tbn); Juan Tizol (v-tbn); George Roberts (b-tbn); Skeets Herfurt, Harry Klee (alt); Ted Nash, James Williamson (ten); Joe Koch (bar); Victor Bay, Emo Neufeld, Alex Beller, Victor Amo, David Frisina, Eudice Shapiro, Jacques Gasselin, Felix Slatkin, Paul Shure, Marshall Sosson (vln); David Sterkin, Maxine Johnson, Alvin Dinkin (via); Eleanor Slatkin, Ennio Bolognini, Cy Bernard (vie); Kathryn Julye (harp); Bill Miller (p); Nick Bonney (g); Joe Comfort (b); Alvin Stoller (d).

 

Лог проверки качества
foobar2000 1.3.9 / Dynamic Range Meter 1.1.1
log date: 2020-01-05 12:55:21

--------------------------------------------------------------------------------
Analyzed: Frank Sinatra / A Swingin' Affair!
--------------------------------------------------------------------------------

DR         Peak         RMS     Duration Track
--------------------------------------------------------------------------------
DR10      -1.45 dB   -14.25 dB      4:00 01-Night And Day
DR10      -1.15 dB   -13.82 dB      2:28 02-I Wish I Were In Love Again
DR11      -1.67 dB   -15.52 dB      3:11 03-I Got Plenty O' Nuttin'
DR11      -1.53 dB   -14.61 dB      2:23 04-I Guess I'll Have To Change My Plans
DR11      -1.89 dB   -14.75 dB      2:21 05-Nice Work If You Can Get It
DR10      -2.43 dB   -14.87 dB      2:38 06-Stars Fell On Alabama
DR11      -2.11 dB   -15.48 dB      3:25 07-No One Ever Tells You
DR10      -2.18 dB   -13.80 dB      3:23 08-I Won't Dance
DR11      -1.37 dB   -14.93 dB      3:54 09-Lonesome Road
DR9       -2.07 dB   -14.12 dB      2:23 10-At Long Last Love!
DR10      -2.02 dB   -15.10 dB      2:04 11-You'd Be So Nice To Come Home To
DR11      -2.25 dB   -16.84 dB      3:22 12-I Got It Bad And That Ain't Good
DR11      -1.82 dB   -15.07 dB      3:52 13-From This Moment On
DR12      -1.65 dB   -15.98 dB      2:36 14-If I Had You
DR12      -1.52 dB   -15.80 dB      2:51 15-Oh! Look At Me Now
--------------------------------------------------------------------------------

Number of tracks:  15
Official DR value: DR11

Samplerate:        44100 Hz
Channels:          2
Bits per sample:   24
Bitrate:           777 kbps
Codec:             FLAC
================================================================================
Any questions - support@pro-jazz.com. Есть вопросы - support@pro-jazz.com
13:29
353
Нет комментариев. Ваш будет первым!