Вы используете незарегистрированную версию компонента "Вкладки"!

Поиск

1976 Jack DeJohnette's Directions - Untitled (2019) {ECM 1074} [24-96]

1976 Jack DeJohnette's Directions - Untitled (2019) {ECM 1074} [24-96]
Дата записи диска:
1 февраля - 28 февраля 1976
Место записи:
Talent Studios, Oslo
Дата издания диска:
1 сентября 1976
Дата переиздания диска:
2 августа 2019
Издатель (лейбл):
Номер по каталогу:
1074
Носитель:
WEB
Формат:
PCM
Тип рипа:
tracks+.cue
Контейнер:
FLAC (*.flac)
Количество каналов:
2.0
Разрядность/ЧД:
24/96
Время звучания:
00:46:17
Наличие сканов:
web
Релизёр (источник):
M0p94ok
Лог проверки качества
foobar2000 1.4.3 / Dynamic Range Meter 1.1.1
log date: 2020-02-12 17:49:16

--------------------------------------------------------------------------------
Analyzed: Jack DeJohnette's Directions / Untitled
--------------------------------------------------------------------------------

DR         Peak         RMS     Duration Track
--------------------------------------------------------------------------------
DR12      -0.70 dB   -15.92 dB     13:59 01-Flying Spirits
DR14      -0.92 dB   -19.06 dB      2:27 02-Pansori Visions
DR13      -0.70 dB   -15.62 dB      6:00 03-Fantastic
DR13      -0.70 dB   -19.14 dB      6:47 04-The Vikings Are Coming
DR12      -0.86 dB   -16.07 dB      6:37 05-Struttin
DR13      -0.70 dB   -18.07 dB      7:28 06-Morning Star
DR12      -0.70 dB   -15.40 dB      3:05 07-Malibu Reggae
--------------------------------------------------------------------------------

Number of tracks:  7
Official DR value: DR13

Samplerate:        96000 Hz
Channels:          2
Bits per sample:   24
Bitrate:           2894 kbps
Codec:             FLAC
================================================================================
Any questions - support@pro-jazz.com. Есть вопросы - support@pro-jazz.com
17:59
285
Нет комментариев. Ваш будет первым!