Поиск

1957 Frank Sinatra - A Jolly Christmas From Frank Sinatra (2015) {Capitol, LLC} [24-192]

1957 Frank Sinatra - A Jolly Christmas From Frank Sinatra (2015) {Capitol, LLC} [24-192]
Треклист:

01. Jingle Bells (1:59)
02. The Christmas Song (Merry Christmas To You) (3:27)
03. Mistletoe And Holly (2:16)
04. I'll Be Home For Christmas (If Only In My Dreams) (3:09)
05. The Christmas Waltz (3:01)
06. Have Yourself A Merry Little Christmas (3:25)
07. The First Noel (2:41)
08. Hark! The Herald Angels Sing (2:21)
09. O Little Town Of Bethlehem (2:04)
10. Adeste Fideles (2:31)
11. It Came Upon A Midnight Clear (2:48)
12. Silent Night (2:25)

Доп. инфо:

Формат записи/Источник записи: [TR24][OF]
Наличие водяных знаков: Нет
Год издания/переиздания диска: 1957/2015
Издатель (лейбл): Capitol Records, LLC
Продолжительность: 32:07
Наличие сканов в содержимом раздачи: Только обложка альбома

Контейнер: FLAC (*.flac)
Тип рипа: tracks
Разрядность: 24/192
Формат: PCM
Количество каналов: 2.0

Источник: hdtracks.com

Лог проверки качества
foobar2000 1.3.9 / Dynamic Range Meter 1.1.1
log date: 2020-01-05 14:55:13

--------------------------------------------------------------------------------
Analyzed: Frank Sinatra / A Jolly Christmas From Frank Sinatra
--------------------------------------------------------------------------------

DR         Peak         RMS     Duration Track
--------------------------------------------------------------------------------
DR9       -1.10 dB   -12.46 dB      1:59 01-Jingle Bells
DR11      -1.25 dB   -15.61 dB      3:27 02-The Christmas Song (Merry Christmas To You)
DR11      -1.08 dB   -14.62 dB      2:16 03-Mistletoe And Holly
DR10      -1.19 dB   -14.54 dB      3:09 04-I'll Be Home For Christmas (If Only In My Dreams)
DR10      -1.22 dB   -14.76 dB      3:01 05-The Christmas Waltz
DR10      -1.19 dB   -14.84 dB      3:25 06-Have Yourself A Merry Little Christmas
DR9       -0.18 dB   -13.56 dB      2:41 07-The First Noel
DR9       -0.16 dB   -12.21 dB      2:21 08-Hark! The Herald Angels Sing
DR11      -0.31 dB   -15.77 dB      2:04 09-O Little Town Of Bethlehem
DR9       -0.21 dB   -12.24 dB      2:31 10-Adeste Fideles
DR12      -0.29 dB   -15.77 dB      2:48 11-It Came Upon A Midnight Clear
DR11      -1.08 dB   -16.00 dB      2:25 12-Silent Night
--------------------------------------------------------------------------------

Number of tracks:  12
Official DR value: DR10

Samplerate:        192000 Hz
Channels:          2
Bits per sample:   24
Bitrate:           2591 kbps
Codec:             FLAC
================================================================================
Приватный:
Нет (DHT включён)
Размер:
630.02 Мб (660,618,761 байт) » файлов: 16
Участники:
0 раздают, 1 качают (1 участников всего)
Внешние участники:
5 раздают, 2 качают (7 участников всего) [ Обновить ]
Скорость:
157.17 Кб/c 0/c
Есть вопросы - пишите личное сообщение пользователю M0p94ok.
15:17
14
Нет комментариев. Ваш будет первым!