Поиск

1957 Frank Sinatra - Close To You (2019) {RevOla} [24-44,1]

1957 Frank Sinatra - Close To You (2019) {RevOla} [24-44,1]
Треклист:

01. Close To You (3:37)
02. P.S. I Love You (4:21)
03. Love Locked Out (2:42)
04. Everything Happens To Me (3:20)
05. It's Easy To Remember (3:34)
06. Don't Like Goodbyes (4:49)
07. With Every Breath I Take (3:38)
08. Blame It On My Youth (2:57)
09. It Could Happen To You (3:13)
10. I've Had My Moments (3:46)
11. I Couldn't Sleep A Wink Last Night (3:25)
12. The End Of A Love Affair (4:10)

Доп. инфо:

Формат записи/Источник записи: [TR24][OF]
Наличие водяных знаков: Нет
Издание: Remastered
Год издания/переиздания диска: 1957/2019
Издатель (лейбл): RevOla Records
Продолжительность: 43:31
Наличие сканов в содержимом раздачи: Только обложка альбома

Контейнер: FLAC (*.flac)
Тип рипа: tracks
Разрядность: 24/44,1
Формат: PCM
Количество каналов: 2.0

Источник: qobuz.com

Лог проверки качества
foobar2000 1.3.9 / Dynamic Range Meter 1.1.1
log date: 2020-01-05 15:19:38

--------------------------------------------------------------------------------
Analyzed: Frank Sinatra / Close To You
--------------------------------------------------------------------------------

DR         Peak         RMS     Duration Track
--------------------------------------------------------------------------------
DR13      -1.86 dB   -18.97 dB      3:37 01-Close To You
DR13      -1.86 dB   -17.26 dB      4:21 02-P.S. I Love You
DR12      -2.28 dB   -17.57 dB      2:42 03-Love Locked Out
DR13      -2.22 dB   -18.64 dB      3:20 04-Everything Happens To Me
DR13      -2.02 dB   -18.28 dB      3:34 05-It's Easy To Remember
DR12      -3.07 dB   -18.61 dB      4:49 06-Don't Like Goodbyes
DR15      -1.87 dB   -20.51 dB      3:38 07-With Every Breath I Take
DR13      -2.31 dB   -18.66 dB      2:57 08-Blame It On My Youth
DR15      -2.19 dB   -21.58 dB      3:13 09-It Could Happen To You
DR13      -2.58 dB   -18.45 dB      3:46 10-I've Had My Moments
DR12      -2.75 dB   -18.14 dB      3:25 11-I Couldn't Sleep A Wink Last Night
DR12      -3.54 dB   -19.39 dB      4:10 12-The End Of A Love Affair
--------------------------------------------------------------------------------

Number of tracks:  12
Official DR value: DR13

Samplerate:        44100 Hz
Channels:          2
Bits per sample:   24
Bitrate:           1107 kbps
Codec:             FLAC
================================================================================
Приватный:
Нет (DHT включён)
Размер:
368.02 Мб (385,895,242 байт) » файлов: 15
Участники:
0 раздают, 0 качают (0 участников всего)
Внешние участники:
3 раздают, 1 качают (4 участников всего) [ Обновить ]
Есть вопросы - пишите личное сообщение пользователю M0p94ok.
16:50
21
Нет комментариев. Ваш будет первым!