Поиск

2017 Bruce Harris - Beginnings {Positone PR8174} [24-88,2]

2017 Bruce Harris - Beginnings {Positone PR8174} [24-88,2]
Стили:
Дата записи диска:
19 сентября 2016
Место записи:
Acoustic Recording, Brooklyn, NY
Номер по каталогу:
PR8174
Носитель:
WEB
Формат:
PCM
Тип рипа:
tracks
Контейнер:
FLAC (*.flac)
Количество каналов:
2.0
Разрядность/ЧД:
24/88,2
Формат записи/Источник записи:
[TR24][OF]
Время звучания:
00:47:53
Наличие сканов:
только обложка
Наличие водяных знаков:
нет
Страна-производитель диска (релиза):
USA
Релизёр (источник):
M0p94ok
Треклист:

1. Ask Questions   06:20
2. Ill Wind  06:11
3. Mr. Blakey  06:46
4. Snowbound  05:18
5. The Step  05:59
6. Do U Lie?  03:58
7. Una Noche Con Francis  06:54
8. So Near, So Far  06:27

Лог проверки качества
foobar2000 1.4.3 / Dynamic Range Meter 1.1.1
log date: 2020-02-14 17:12:11

--------------------------------------------------------------------------------
Analyzed: Bruce Harris / Beginnings
--------------------------------------------------------------------------------

DR         Peak         RMS     Duration Track
--------------------------------------------------------------------------------
DR10      -0.97 dB   -12.71 dB      6:20 01-Ask Questions
DR8       -0.97 dB   -11.43 dB      6:11 02-Ill Wind
DR10      -0.97 dB   -12.77 dB      6:47 03-Mr. Blakey
DR10      -0.97 dB   -14.53 dB      5:18 04-Snowbound
DR10      -0.97 dB   -13.28 dB      6:00 05-The Step
DR10      -0.97 dB   -12.89 dB      3:58 06-Do U Lie?
DR10      -0.97 dB   -12.29 dB      6:55 07-Una Noche Con Francis
DR9       -0.97 dB   -12.25 dB      6:27 08-So Near, So Far
--------------------------------------------------------------------------------

Number of tracks:  8
Official DR value: DR10

Samplerate:        88200 Hz
Channels:          2
Bits per sample:   24
Bitrate:           2744 kbps
Codec:             FLAC
================================================================================
Приватный:
Нет (DHT включён)
Размер:
975.96 Мб (1,023,363,203 байт) » файлов: 10
Участники:
2 раздают, 0 качают (2 участников всего)
Внешние участники:
--- [ Обновить ]
Есть вопросы - пишите личное сообщение пользователю M0p94ok.
17:22
25
Нет комментариев. Ваш будет первым!