Вы используете незарегистрированную версию компонента "Вкладки"!

Поиск

1957 Frank Sinatra - Where Are You? (2019) {RevOla} [24-44,1]

1957 Frank Sinatra - Where Are You? (2019) {RevOla} [24-44,1]
Издатель (лейбл):
Доп. инфо:

Формат записи/Источник записи: [TR24][OF]
Наличие водяных знаков: Нет
Издание: Remastered
Год издания/переиздания диска: 1957/2019
Издатель (лейбл): RevOla Records
Продолжительность: 38:42
Наличие сканов в содержимом раздачи: Только обложка альбома

Контейнер: FLAC (*.flac)
Тип рипа: tracks
Разрядность: 24/44,1
Формат: PCM
Количество каналов: 2.0

Источник: qobuz.com

Лог проверки качества
foobar2000 1.3.9 / Dynamic Range Meter 1.1.1
log date: 2020-01-05 15:44:56

--------------------------------------------------------------------------------
Analyzed: Frank Sinatra / Where Are You?
--------------------------------------------------------------------------------

DR         Peak         RMS     Duration Track
--------------------------------------------------------------------------------
DR13      -5.01 dB   -22.47 dB      3:32 01-Where Are You?
DR11      -2.90 dB   -20.32 dB      3:24 02-The Night We Called It A Day
DR12      -5.68 dB   -22.27 dB      2:59 03-I Cover The Waterfront
DR12      -7.74 dB   -24.13 dB      3:08 04-Maybe You'll Be There
DR12      -8.04 dB   -24.35 dB      3:15 05-Laura
DR12      -6.73 dB   -24.46 dB      4:15 06-Lonely Town
DR11      -8.60 dB   -24.24 dB      2:53 07-Autumn Leaves
DR10     -11.06 dB   -24.51 dB      2:58 08-I'm A Fool To Want You
DR14      -5.89 dB   -24.59 dB      3:05 09-I Think Of You
DR11      -4.70 dB   -20.03 dB      2:51 10-Where Is The One?
DR13      -3.28 dB   -20.96 dB      3:29 11-There's No You
DR14      -8.61 dB   -26.84 dB      2:52 12-Baby Won't You Please Come Home
--------------------------------------------------------------------------------

Number of tracks:  12
Official DR value: DR12

Samplerate:        44100 Hz
Channels:          2
Bits per sample:   24
Bitrate:           1200 kbps
Codec:             FLAC
================================================================================
Any questions - support@pro-jazz.com. Есть вопросы - support@pro-jazz.com
22:36
267
Нет комментариев. Ваш будет первым!