Поиск

1958 Frank Sinatra - Frank Sinatra Sings For Only The Lonely (2019) {RevOla} [24-44,1]

1958 Frank Sinatra - Frank Sinatra Sings For Only The Lonely (2019) {RevOla} [24-44,1]
Треклист:

01. Only The Lonely (4:08)
02. Angel Eyes (3:42)
03. What's New? (5:08)
04. It's A Lonesome Old Town (4:15)
05. Willow, Weep For Me (4:46)
06. Good-Bye (5:43)
07. Blues In The Night (4:41)
08. Guess I'll Hang My Tears Out To Dry (4:00)
09. Ebb Tide (3:14)
10. Spring Is Here (4:43)
11. Gone With The Wind (5:12)
12. One For My Baby (4:27)

Доп. инфо:

Формат записи/Источник записи: [TR24][OF]
Наличие водяных знаков: Нет
Издание: Remastered
Год издания/переиздания диска: 1958/2019
Издатель (лейбл): RevOla Records
Продолжительность: 54:01
Наличие сканов в содержимом раздачи: Только обложка альбома

Контейнер: FLAC (*.flac)
Тип рипа: tracks
Разрядность: 24/44,1
Формат: PCM
Количество каналов: 2.0

Источник: qobuz.com

Лог проверки качества
foobar2000 1.3.9 / Dynamic Range Meter 1.1.1
log date: 2020-01-05 16:07:56

--------------------------------------------------------------------------------
Analyzed: Frank Sinatra / Sings For Only The Lonely
--------------------------------------------------------------------------------

DR         Peak         RMS     Duration Track
--------------------------------------------------------------------------------
DR14      -2.94 dB   -20.31 dB      4:08 01-Only The Lonely
DR14      -2.03 dB   -20.84 dB      3:42 02-Angel Eyes
DR15      -1.96 dB   -21.73 dB      5:08 03-What's New?
DR12      -3.14 dB   -20.00 dB      4:15 04-It's A Lonesome Old Town
DR13      -2.55 dB   -20.56 dB      4:46 05-Willow, Weep For Me
DR14      -2.26 dB   -21.76 dB      5:43 06-Good-Bye
DR14      -2.39 dB   -20.38 dB      4:41 07-Blues In The Night
DR14      -2.29 dB   -20.70 dB      4:00 08-Guess I'll Hang My Tears Out To Dry
DR12      -2.55 dB   -18.91 dB      3:14 09-Ebb Tide
DR12      -2.73 dB   -19.05 dB      4:43 10-Spring Is Here
DR14      -2.36 dB   -21.25 dB      5:12 11-Gone With The Wind
DR18      -2.57 dB   -25.46 dB      4:27 12-One For My Baby
--------------------------------------------------------------------------------

Number of tracks:  12
Official DR value: DR14

Samplerate:        44100 Hz
Channels:          2
Bits per sample:   24
Bitrate:           635 kbps
Codec:             FLAC
================================================================================
Приватный:
Нет (DHT включён)
Размер:
273.72 Мб (287,014,447 байт) » файлов: 15
Участники:
16 раздают, 0 качают (16 участников всего)
Внешние участники:
7 раздают, 2 качают (9 участников всего) [ Обновить ]
Есть вопросы - пишите личное сообщение пользователю M0p94ok.
12:20
21
Нет комментариев. Ваш будет первым!