Поиск

1959 Frank Sinatra - Look To Your Heart (2019) {RevOla} [24-44,1]

1959 Frank Sinatra - Look To Your Heart (2019) {RevOla} [24-44,1]
Треклист:

01. Look To Your Heart (3:08)
02. Anytime, Anywhere (2:45)
03. Not As A Stranger (2:46)
04. Our Town (3:14)
05. You, My Love (2:55)
06. Same Old Saturday Night (2:29)
07. Fairy Tale (2:58)
08. The Impatient Years (3:14)
09. I Could Have Told You (3:17)
10. When I Stop Loving You (2:56)
11. If I Had Three Wishes (2:55)
12. I'm Gonna Live Till I Die (1:54)

Доп. инфо:

Формат записи/Источник записи: [TR24][OF]
Наличие водяных знаков: Нет
Издание: Remastered
Год издания/переиздания диска: 1959/2019
Издатель (лейбл): RevOla Records
Продолжительность: 34:31
Наличие сканов в содержимом раздачи: Только обложка альбома

Контейнер: FLAC (*.flac)
Тип рипа: tracks
Разрядность: 24/44,1
Формат: PCM
Количество каналов: 2.0

Источник: qobuz.com

Лог проверки качества
foobar2000 1.3.9 / Dynamic Range Meter 1.1.1
log date: 2020-01-05 20:35:26

--------------------------------------------------------------------------------
Analyzed: Frank Sinatra / Look To Your Heart
--------------------------------------------------------------------------------

DR         Peak         RMS     Duration Track
--------------------------------------------------------------------------------
DR9       -2.08 dB   -13.97 dB      3:08 01-Look To Your Heart
DR11      -3.79 dB   -17.45 dB      2:45 02-Anytime, Anywhere
DR11      -3.42 dB   -16.03 dB      2:46 03-Not As A Stranger
DR10      -3.74 dB   -16.44 dB      3:14 04-Our Town
DR10      -3.00 dB   -15.62 dB      2:55 05-You, My Love
DR11      -2.35 dB   -15.26 dB      2:29 06-Same Old Saturday Night
DR13      -1.15 dB   -17.89 dB      2:58 07-Fairy Tale
DR10      -3.45 dB   -15.18 dB      3:14 08-The Impatient Years
DR10      -4.46 dB   -17.19 dB      3:17 09-I Could Have Told You
DR10      -3.28 dB   -16.35 dB      2:56 10-When I Stop Loving You
DR11      -2.55 dB   -15.91 dB      2:55 11-If I Had Three Wishes
DR12      -1.60 dB   -15.35 dB      1:54 12-I'm Gonna Live Till I Die
--------------------------------------------------------------------------------

Number of tracks:  12
Official DR value: DR11

Samplerate:        44100 Hz
Channels:          2
Bits per sample:   24
Bitrate:           1198 kbps
Codec:             FLAC
================================================================================
Приватный:
Нет (DHT включён)
Размер:
315.02 Мб (330,317,209 байт) » файлов: 15
Участники:
0 раздают, 0 качают (0 участников всего)
Внешние участники:
3 раздают, 1 качают (4 участников всего) [ Обновить ]
Есть вопросы - пишите личное сообщение пользователю M0p94ok.
13:27
18
Нет комментариев. Ваш будет первым!