Поиск

1958 Frank Sinatra - This Is Sinatra, Vol. 2 {RevOla} [24-44,1]

1958 Frank Sinatra - This Is Sinatra, Vol. 2 {RevOla} [24-44,1]
Треклист:

01. Hey! Jealous Lover (2:22)
02. Everybody Loves Somebody (3:43)
03. Something Wonderful Happens In Summer (3:14)
04. Half As Lovely Twice As True (3:06)
05. You're Cheatin' Yourself (2:34)
06. You'll Always Be The One I Love (2:56)
07. You Forgot All The Words (3:20)
08. How Little We Know (2:41)
09. Time After Time (3:28)
10. Crazy Love (2:51)
11. Wait For Me (“Johnny Concho” Theme) (2:50)
12. If You Are But A Dream (3:54)
13. So Long, My Love (2:47)
14. It's The Same Old Dream (3:03)
15. I Believe (2:30)
16. Put Your Dreams Away (3:13)

Доп. инфо:

Формат записи/Источник записи: [TR24][OF]
Наличие водяных знаков: Нет
Издание: Remastered
Год издания/переиздания диска: 1958/2019
Издатель (лейбл): RevOla Records
Продолжительность: 48:31
Наличие сканов в содержимом раздачи: Только обложка альбома

Контейнер: FLAC (*.flac)
Тип рипа: tracks
Разрядность: 24/44,1
Формат: PCM
Количество каналов: 2.0

Источник: qobuz.com

Лог проверки качества
foobar2000 1.3.9 / Dynamic Range Meter 1.1.1
log date: 2020-01-05 21:38:36

--------------------------------------------------------------------------------
Analyzed: Frank Sinatra / This Is Sinatra Volume Two
--------------------------------------------------------------------------------

DR         Peak         RMS     Duration Track
--------------------------------------------------------------------------------
DR11      -1.74 dB   -14.01 dB      2:22 01-Hey! Jealous Lover
DR11      -1.36 dB   -16.51 dB      3:43 02-Everybody Loves Somebody
DR10      -2.70 dB   -16.98 dB      3:14 03-Something Wonderful Happens In Summer
DR11      -1.67 dB   -14.63 dB      3:06 04-Half As Lovely Twice As True
DR11      -0.83 dB   -14.10 dB      2:34 05-You're Cheatin' Yourself
DR9       -2.51 dB   -13.82 dB      2:56 06-You'll Always Be The One I Love
DR10      -2.88 dB   -16.19 dB      3:20 07-You Forgot All The Words
DR11      -2.10 dB   -16.15 dB      2:41 08-How Little We Know
DR10      -2.48 dB   -15.16 dB      3:28 09-Time After Time
DR12      -1.86 dB   -16.49 dB      2:51 10-Crazy Love
DR10      -3.11 dB   -16.92 dB      2:50 11-Wait For Me (“Johnny Concho” Theme)
DR10      -2.23 dB   -15.19 dB      3:54 12-If You Are But A Dream
DR10      -1.51 dB   -13.61 dB      2:47 13-So Long, My Love
DR10      -1.83 dB   -13.86 dB      3:03 14-It's The Same Old Dream
DR11      -1.85 dB   -14.56 dB      2:30 15-I Believe
DR10      -2.28 dB   -14.84 dB      3:13 16-Put Your Dreams Away
--------------------------------------------------------------------------------

Number of tracks:  16
Official DR value: DR10

Samplerate:        44100 Hz
Channels:          2
Bits per sample:   24
Bitrate:           1161 kbps
Codec:             FLAC
================================================================================
Приватный:
Нет (DHT включён)
Размер:
417.69 Мб (437,980,554 байт) » файлов: 19
Участники:
0 раздают, 0 качают (0 участников всего)
Внешние участники:
2 раздают, 1 качают (3 участников всего) [ Обновить ]
Есть вопросы - пишите личное сообщение пользователю M0p94ok.
14:05
20
Нет комментариев. Ваш будет первым!