Вы используете незарегистрированную версию компонента "Вкладки"!

Поиск

2018 Ari Hoenig - NY Standard {Fresh Sound New Talent} [24-88,2]

2018 Ari Hoenig - NY Standard {Fresh Sound New Talent} [24-88,2]
Издатель (лейбл):
Номер по каталогу:
FSNT550
Носитель:
WEB
Формат:
PCM
Тип рипа:
tracks+.cue
Количество каналов:
2.0
Разрядность/ЧД:
24/88,2
Битрейт аудио:
lossless
Время звучания:
00:43:49
Наличие сканов:
web
Страна-производитель диска (релиза):
USA
Релизёр (источник):
M0p94ok
Лог проверки качества
foobar2000 1.3.16 / Dynamic Range Meter 1.1.1
log date: 2019-02-19 21:20:09

--------------------------------------------------------------------------------
Analyzed: Ari Hoenig, Tivon Pennicott, Gilad Hekselman, Orlando le Fleming, Eden Ladin / NY Standard (1-2)
          Ari Hoenig, Tivon Pennicott, Gilad Hekselman, Orlando le Fleming, Shai Maestro / NY Standard (3-4)
          Ari Hoenig, Tivon Pennicott, Gilad Hekselman, Orlando le Fleming / NY Standard (5-6)
--------------------------------------------------------------------------------

DR         Peak         RMS     Duration Track
--------------------------------------------------------------------------------
DR9       -1.00 dB   -13.68 dB      6:19 03-Stablemates
DR9       -1.00 dB   -13.63 dB      5:52 05-Pent up House
DR9       -1.00 dB   -13.79 dB      6:21 04-Someday My Prince Will Come
DR8       -1.00 dB   -13.06 dB      7:30 06-In Walked Bud
DR8       -1.00 dB   -12.17 dB      4:29 01-Boplicity
DR9       -1.00 dB   -13.76 dB      4:50 07-Fee Fi fo Fum
--------------------------------------------------------------------------------

Number of tracks:  6
Official DR value: DR9

Samplerate:        88200 Hz
Channels:          2
Bits per sample:   24
Bitrate:           2594 kbps
Codec:             FLAC
================================================================================
Any questions - support@pro-jazz.com. Есть вопросы - support@pro-jazz.com
20:58
227
Нет комментариев. Ваш будет первым!