Вы используете незарегистрированную версию компонента "Вкладки"!

Поиск

2019 Awake - Aubes Et Crepuscules {Jazz & People JPCD819001} [24-44,1]

2019 Awake - Aubes Et Crepuscules {Jazz & People JPCD819001} [24-44,1]
Стили:
Место записи:
Studio Gemini
Дата издания диска:
22 февраля 2019
Номер по каталогу:
JPCD819001
Носитель:
WEB
Формат:
PCM
Тип рипа:
tracks+.cue
Количество каналов:
2.0
Разрядность/ЧД:
24/44,1
Битрейт аудио:
lossless
Время звучания:
00:44:23
Наличие сканов:
web
Релизёр (источник):
M0p94ok
Лог проверки качества
foobar2000 1.5.5 / Dynamic Range Meter 1.1.1
log date: 2020-10-08 21:29:43

--------------------------------------------------------------------------------
Analyzed: Awake / Aubes et crépuscules
--------------------------------------------------------------------------------

DR         Peak         RMS     Duration Track
--------------------------------------------------------------------------------
DR8       -0.01 dB   -11.72 dB      4:56 01-A Bird With No Word
DR8        0.00 dB   -12.19 dB      4:59 02-(…) Among Other Things
DR7        0.00 dB    -9.86 dB      4:44 03-Grey Day
DR12      -0.10 dB   -16.73 dB      6:01 04-Rêverie
DR8        0.00 dB   -10.90 dB      6:39 05-Speak the Unspoken
DR8        0.00 dB   -10.69 dB      6:20 06-Balance
DR7        0.00 dB   -10.41 dB      6:39 07-Lueur
DR9       -0.05 dB   -13.19 dB      4:11 08-Tourbillon
--------------------------------------------------------------------------------

Number of tracks:  8
Official DR value: DR9

Samplerate:        44100 Hz
Channels:          2
Bits per sample:   24
Bitrate:           1358 kbps
Codec:             FLAC
================================================================================
Any questions - support@pro-jazz.com. Есть вопросы - support@pro-jazz.com
23:01
255
Нет комментариев. Ваш будет первым!