Вы используете незарегистрированную версию компонента "Вкладки"!

Поиск

2012 Diana Panton - Christmas Kiss (2018) {2xHD} [DSD128]

2012 Diana Panton - Christmas Kiss (2018) {2xHD} [DSD128]
Стили:
Издатель (лейбл):
Битрейт аудио:
lossless
Доп. инфо:

Формат записи/Источник записи: [DSD][OF]
Наличие водяных знаков: Нет
Год издания/переиздания диска: 2012 / 2018
Продолжительность: 01:02:07
Наличие сканов в содержимом раздачи: Буклет PDF

Контейнер: DSF (*.dsf)
Тип рипа: tracks
Разрядность: 128 (5,6 MHz/1 Bit)
Формат: DSD
Количество каналов: 2.0

Источник (релизер): https://store.acousticsounds.com/d/139943/Diana_Panton-Christmas_Kiss-DSD_Double_...Hz128fs_Download

Лог проверки качества
foobar2000 1.4 / Dynamic Range Meter 1.1.1
log date: 2019-07-16 01:11:07
--------------------------------------------------------------------------------------
Analyzed: Diana Panton / Christmas Kiss
--------------------------------------------------------------------------------------
DR          Peak          RMS     Duration         Track
--------------------------------------------------------------------------------------
DR9    -8.74 dB   -19.31 dB   4:33   01-Kissing by the Mistletoe
DR9    -8.44 dB   -19.78 dB   4:47   02-Baby, It's Cold Outside
DR9    -8.55 dB   -21.31 dB   4:00   03-Christmas Kiss
DR9    -8.10 dB   -19.59 dB   2:53   04-Winter Weather
DR8  -10.25 dB   -21.89 dB   3:28   05-C'est Noël Chéri: C'est Noël Cheri
DR9    -8.58 dB   -19.45 dB   3:58   06-Winter Wonderland
DR9    -9.35 dB   -22.25 dB   5:18   07-Have Yourself a Merry Little Christmas
DR10  -9.12 dB   -21.81 dB   5:24   08-December
DR10  -9.06 dB   -20.95 dB   3:32   09-Snowbound
DR9  -10.37 dB   -23.32 dB   4:47   10-Winter Warm
DR9    -8.60 dB   -19.20 dB   3:56   11-The Christmas Waltz
DR11  -8.77 dB   -22.70 dB   4:34   12-Christmas Time Is Here
DR9    -8.57 dB   -19.45 dB   3:27   13-Let it Snow/C'est l'hiver
DR9    -8.84 dB   -21.08 dB   4:46   14-Images of Christmas
DR8    -9.95 dB   -23.29 dB   2:54   15-Douce nuit (Silent Night)
-------------------------------------------------------------------------------------
Number of tracks: 15
Official DR value: DR9

Samplerate: 5644800 Hz / PCM Samplerate: 176400 Hz
Channels: 2
Bits per sample: 1
Bitrate: 11290 kbps
Codec: DSD128
=====================================================
Any questions - support@pro-jazz.com. Есть вопросы - support@pro-jazz.com
00:21
239
Нет комментариев. Ваш будет первым!