Поиск

2017 Xavi Torres Trio - Unknown Past {Berthold} [WEB]

2017 Xavi Torres Trio - Unknown Past {Berthold} [WEB]
Стили:
Дата издания диска:
16 июня 2017
Номер по каталогу:
BERTHOLD Records
Носитель:
WEB
Аудиокодек:
FLAC (*.flac)
Тип рипа:
tracks
Битрейт аудио:
lossless
Время звучания:
00:51:40
Наличие сканов:
только обложка
Релизёр (источник):
M0p94ok
Треклист:

01. Benko
02. The Unknown
03. Hesitació
04. Mèlt
05. Scipio
06. Our Freedom
07. Madiba
08. Hope
09. DT
10. Overcome
11. The Barco
12. Benko Ends

 
DRM.log

foobar2000 1.4.3 / Dynamic Range Meter 1.1.1
log date: 2019-05-14 19:59:04

--------------------------------------------------------------------------------
Analyzed: Xavi Torres Trio / Unknown Past
--------------------------------------------------------------------------------

DR         Peak         RMS     Duration Track
--------------------------------------------------------------------------------
DR10      -0.10 dB   -12.68 dB      2:03 01-Benko
DR12      -0.10 dB   -13.44 dB      5:27 02-The Unknown
DR11      -0.10 dB   -13.66 dB      5:18 03-Hesitació
DR11      -0.10 dB   -13.86 dB      5:34 04-Mèlt
DR10      -0.10 dB   -12.79 dB      6:02 05-Scipio
DR12      -1.93 dB   -18.54 dB      3:55 06-Our Freedom
DR11      -0.10 dB   -13.25 dB      4:57 07-Madiba
DR10      -0.10 dB   -14.23 dB      3:24 08-Hope
DR10      -0.10 dB   -12.91 dB      3:45 09-Dt
DR12      -0.10 dB   -14.70 dB      4:32 10-Overcome
DR12      -0.10 dB   -14.15 dB      5:14 11-The Barco
DR12      -0.12 dB   -16.24 dB      1:35 12-Benko Ends
--------------------------------------------------------------------------------

Number of tracks:  12
Official DR value: DR11

Samplerate:        44100 Hz
Channels:          2
Bits per sample:   16
Bitrate:           537 kbps
Codec:             FLAC
================================================================================

 
CUETools log

[CUETools log; Date: 14.05.2019 20:00:21; Version: 2.1.6]
[CTDB TOCID: OEx.rXI6zMqoiTI9JnYSGge5yBc-] found.
        [ CTDBID ] Status
        [ba3e0052] (1/1) Accurately ripped
Track | CTDB Status
  1   | (1/1) Accurately ripped
  2   | (1/1) Accurately ripped
  3   | (1/1) Accurately ripped
  4   | (1/1) Accurately ripped
  5   | (1/1) Accurately ripped
  6   | (1/1) Accurately ripped
  7   | (1/1) Accurately ripped
  8   | (1/1) Accurately ripped
  9   | (1/1) Accurately ripped
 10   | (1/1) Accurately ripped
 11   | (1/1) Accurately ripped
 12   | (1/1) Accurately ripped
[AccurateRip ID: 001814a5-00e18171-900c210c] disk not present in database.

Track Peak [ CRC32  ] [W/O NULL] 
 --   98,8 [6669A30F] [B2B35865]           
 01   98,8 [51C42B25] [2D47929E]           
 02   98,8 [761A5314] [033BAE4D]           
 03   98,8 [A268FD26] [C16414A6]           
 04   98,8 [534B39C8] [D93A72E8]           
 05   98,8 [63BF0F2B] [0E3EAEE8]           
 06   80,0 [001131DE] [E13329F4]           
 07   98,8 [E9CCB75D] [3764900F]           
 08   98,8 [4086C942] [14559341]           
 09   98,8 [F2DD2E3F] [A58C3B06]           
 10   98,8 [B1E04B8A] [FF4B2D9B]           
 11   98,8 [022C8CD3] [30A4D602]           
 12   98,6 [A29335AD] [0EC2081E]           

Содержание индексной карты (.CUE)
REM GENRE Jazz
REM DATE 28-09-2018
PERFORMER "Xavi Torres Trio"
TITLE "Unknown Past"
FILE "1. Xavi Torres Trio - Benko.flac" WAVE
  TRACK 01 AUDIO
    TITLE "Benko"
    PERFORMER "Xavi Torres Trio"
    ISRC DEPH51700101
    INDEX 01 00:00:00
FILE "2. Xavi Torres Trio - The Unknown.flac" WAVE
  TRACK 02 AUDIO
    TITLE "The Unknown"
    PERFORMER "Xavi Torres Trio"
    ISRC DEPH51700102
    INDEX 01 00:00:00
FILE "3. Xavi Torres Trio - Hesitació.flac" WAVE
  TRACK 03 AUDIO
    TITLE "Hesitació"
    PERFORMER "Xavi Torres Trio"
    ISRC DEPH51700103
    INDEX 01 00:00:00
FILE "4. Xavi Torres Trio - Mèlt.flac" WAVE
  TRACK 04 AUDIO
    TITLE "Mèlt"
    PERFORMER "Xavi Torres Trio"
    ISRC DEPH51700104
    INDEX 01 00:00:00
FILE "5. Xavi Torres Trio - Scipio.flac" WAVE
  TRACK 05 AUDIO
    TITLE "Scipio"
    PERFORMER "Xavi Torres Trio"
    ISRC DEPH51700105
    INDEX 01 00:00:00
FILE "6. Xavi Torres Trio - Our Freedom.flac" WAVE
  TRACK 06 AUDIO
    TITLE "Our Freedom"
    PERFORMER "Xavi Torres Trio"
    ISRC DEPH51700106
    INDEX 01 00:00:00
FILE "7. Xavi Torres Trio - Madiba.flac" WAVE
  TRACK 07 AUDIO
    TITLE "Madiba"
    PERFORMER "Xavi Torres Trio"
    ISRC DEPH51700107
    INDEX 01 00:00:00
FILE "8. Xavi Torres Trio - Hope.flac" WAVE
  TRACK 08 AUDIO
    TITLE "Hope"
    PERFORMER "Xavi Torres Trio"
    ISRC DEPH51700108
    INDEX 01 00:00:00
FILE "9. Xavi Torres Trio - Dt.flac" WAVE
  TRACK 09 AUDIO
    TITLE "Dt"
    PERFORMER "Xavi Torres Trio"
    ISRC DEPH51700109
    INDEX 01 00:00:00
FILE "10. Xavi Torres Trio - Overcome.flac" WAVE
  TRACK 10 AUDIO
    TITLE "Overcome"
    PERFORMER "Xavi Torres Trio"
    ISRC DEPH51700110
    INDEX 01 00:00:00
FILE "11. Xavi Torres Trio - The Barco.flac" WAVE
  TRACK 11 AUDIO
    TITLE "The Barco"
    PERFORMER "Xavi Torres Trio"
    ISRC DEPH51700111
    INDEX 01 00:00:00
FILE "12. Xavi Torres Trio - Benko Ends.flac" WAVE
  TRACK 12 AUDIO
    TITLE "Benko Ends"
    PERFORMER "Xavi Torres Trio"
    ISRC DEPH51700112
    INDEX 01 00:00:00
Лог проверки качества
CUE Corrector v. 8.3.5 / b. 913 (Apr. 22, 2019)
————————————————————————————————————————————————————————————————————————
Xavi Torres Trio / Unknown Past

Folder: 2017 Xavi Torres Trio - Unknown Past {Berthold} [WEB]
Audio files:
    1. Xavi Torres Trio - Benko.flac [02:02.680; FLAC • 866 kbps • 16 bit \ 44100 Hz • stereo; 12.67 MB (13 282 674 B)]
    2. Xavi Torres Trio - The Unknown.flac [05:27.400; FLAC • 926 kbps • 16 bit \ 44100 Hz • stereo; 36.16 MB (37 912 704 B)]
    3. Xavi Torres Trio - Hesitació.flac [05:18.467; FLAC • 833 kbps • 16 bit \ 44100 Hz • stereo; 31.63 MB (33 162 414 B)]
    4. Xavi Torres Trio - Mèlt.flac [05:34.120; FLAC • 797 kbps • 16 bit \ 44100 Hz • stereo; 31.76 MB (33 299 991 B)]
    5. Xavi Torres Trio - Scipio.flac [06:01.893; FLAC • 870 kbps • 16 bit \ 44100 Hz • stereo; 37.57 MB (39 399 909 B)]
    6. Xavi Torres Trio - Our Freedom.flac [03:54.613; FLAC • 747 kbps • 16 bit \ 44100 Hz • stereo; 20.91 MB (21 927 544 B)]
    7. Xavi Torres Trio - Madiba.flac [04:57.133; FLAC • 823 kbps • 16 bit \ 44100 Hz • stereo; 29.18 MB (30 601 511 B)]
    8. Xavi Torres Trio - Hope.flac [03:23.533; FLAC • 633 kbps • 16 bit \ 44100 Hz • stereo; 15.37 MB (16 121 785 B)]
    9. Xavi Torres Trio - Dt.flac [03:45.360; FLAC • 837 kbps • 16 bit \ 44100 Hz • stereo; 22.50 MB (23 597 922 B)]
    10. Xavi Torres Trio - Overcome.flac [04:31.573; FLAC • 842 kbps • 16 bit \ 44100 Hz • stereo; 27.29 MB (28 611 559 B)]
    11. Xavi Torres Trio - The Barco.flac [05:13.707; FLAC • 873 kbps • 16 bit \ 44100 Hz • stereo; 32.65 MB (34 240 861 B)]
    12. Xavi Torres Trio - Benko Ends.flac [01:35.200; FLAC • 709 kbps • 16 bit \ 44100 Hz • stereo; 8.05 MB (8 443 027 B)]

Accuracy: -m0

File 1. Xavi Torres Trio - Benko       - 100% CDDA [02:02:51]
File 2. Xavi Torres Trio - The Unknown - 100% CDDA [05:27:30]
File 3. Xavi Torres Trio - Hesitació   - 100% CDDA [05:18:35]
File 4. Xavi Torres Trio - Mèlt        - 100% CDDA [05:34:09]
File 5. Xavi Torres Trio - Scipio      - 100% CDDA [06:01:67]
File 6. Xavi Torres Trio - Our Freedom - 100% CDDA [03:54:46]
File 7. Xavi Torres Trio - Madiba      - 100% CDDA [04:57:10]
File 8. Xavi Torres Trio - Hope        - 100% CDDA [03:23:40]
File 9. Xavi Torres Trio - Dt          - 100% CDDA [03:45:27]
File 10. Xavi Torres Trio - Overcome   - 100% CDDA [04:31:43]
File 11. Xavi Torres Trio - The Barco  - 100% CDDA [05:13:53]
File 12. Xavi Torres Trio - Benko Ends - 100% CDDA [01:35:15]
————— Summary: —————
These tracks looks like CDDA with probability 100%.
————————————————————————————————————————————————————————————————————————

ANALYZER:
    auCDtect: CD records authenticity detector, version 0.8.2
    Copyright (c) 2004 Oleg Berngardt. All rights reserved.
    Copyright (c) 2004 Alexander Djourik. All rights reserved.

Time elapsed: 2 m 43 s
Log created at May 14, 2019 20:03:05

=== FA71EFD7CEB3DA301D2B249C5ABB0D3C49D84A393FE294EB8BC34452BE75EDC8 ===
Приватный:
Нет (DHT включён)
Размер:
307.71 Мб (322,659,486 байт) » файлов: 19
Участники:
17 раздают, 0 качают (17 участников всего)
Внешние участники:
--- [ Обновить ]
Никого нет на раздаче - пишите личное сообщение M0p94ok
No seeders - write personal message to M0p94ok
20:11
22
Нет комментариев. Ваш будет первым!