Поиск

2019 Michael Whalen - Michael Whalen & The Fire Brigade {Ropeadope 458} [WEB]

2019 Michael Whalen - Michael Whalen & The Fire Brigade {Ropeadope 458} [WEB]
Страна-производитель диска (релиза):
USA
Место записи:
Kensington Studios Brooklyn, NY
Дата издания диска:
1 марта 2019
Номер по каталогу:
CDRAD 458
Носитель:
WEB
Аудиокодек:
FLAC (*.flac)
Тип рипа:
tracks
Битрейт аудио:
lossless
Время звучания:
49:09
Наличие сканов:
только обложка
Релизёр (источник):
M0p94ok
Треклист:

01. Code 10-80 04:15    
02. Flabbergasted 05:13    
03. Slippery Slope 03:33    
04. Go-Go Bird 04:34    
05. A Childish Dream 04:15    
06. Duck Walk 04:37    
07. Gringo Suave 04:11    
08. Benny's Brooklyn Blues 04:26    
09. Song at Midnight 04:38    
10. Blues for You 09:23

Michael Whalen is a composer who has been nominated for Emmys 8 times and taken home the win twice. He knows music and he knows music promotion. An adjunct professor at NYU and Berklee, Whalen decided to dive into a genre he loves with the desire to make it FUN. Michael tapped friends Michael League and Vinnie Colaiuta to form the rhythm section, and added the powerhouse Bob Magnuson on bass. The result is a fusion-y record with a little bit of Go-Go.

 
DRM.log

foobar2000 1.4.3 / Dynamic Range Meter 1.1.1
log date: 2019-05-14 18:58:08

--------------------------------------------------------------------------------
Analyzed: Michael Whalen, Michael League, Vinne Colaiuta / Michael Whalen & The Fire Brigade
--------------------------------------------------------------------------------

DR         Peak         RMS     Duration Track
--------------------------------------------------------------------------------
DR7       -0.62 dB    -9.06 dB      4:16 01-Code 10-80
DR6       -0.62 dB    -8.49 dB      5:14 02-Flabbergasted
DR6       -0.62 dB    -7.86 dB      3:33 03-Slippery Slope
DR8       -0.59 dB    -9.46 dB      4:35 04-Go-Go Bird
DR6       -0.64 dB    -9.05 dB      4:15 05-A Childish Dream
DR6       -0.64 dB    -8.47 dB      4:37 06-Duck Walk
DR6       -0.63 dB    -8.75 dB      4:11 07-Gringo Suave
DR6       -0.64 dB    -9.10 dB      4:26 08-Benny's Brooklyn Blues
DR9       -0.65 dB   -13.46 dB      4:38 09-Song at Midnight
DR7       -0.64 dB    -9.72 dB      9:23 10-Blues for You
--------------------------------------------------------------------------------

Number of tracks:  10
Official DR value: DR7

Samplerate:        44100 Hz
Channels:          2
Bits per sample:   16
Bitrate:           1000 kbps
Codec:             FLAC
================================================================================

Содержание индексной карты (.CUE)
REM GENRE Jazz
REM DATE 01-03-2019
PERFORMER "Michael Whalen"
TITLE "Michael Whalen & The Fire Brigade"
FILE "1. Michael Whalen - Code 10-80.flac" WAVE
  TRACK 01 AUDIO
    TITLE "Code 10-80"
    PERFORMER "Michael Whalen, Michael League, Vinne Colaiuta"
    ISRC QMPK41800479
    INDEX 01 00:00:00
FILE "2. Michael Whalen - Flabbergasted.flac" WAVE
  TRACK 02 AUDIO
    TITLE "Flabbergasted"
    PERFORMER "Michael Whalen, Michael League, Vinne Colaiuta"
    ISRC QMPK41800480
    INDEX 01 00:00:00
FILE "3. Michael Whalen - Slippery Slope.flac" WAVE
  TRACK 03 AUDIO
    TITLE "Slippery Slope"
    PERFORMER "Michael Whalen, Michael League, Vinne Colaiuta"
    ISRC QMPK41800481
    INDEX 01 00:00:00
FILE "4. Michael Whalen - Go-Go Bird.flac" WAVE
  TRACK 04 AUDIO
    TITLE "Go-Go Bird"
    PERFORMER "Michael Whalen, Michael League, Vinne Colaiuta"
    ISRC QMPK41800482
    INDEX 01 00:00:00
FILE "5. Michael Whalen - A Childish Dream.flac" WAVE
  TRACK 05 AUDIO
    TITLE "A Childish Dream"
    PERFORMER "Michael Whalen, Michael League, Vinne Colaiuta"
    ISRC QMPK41800483
    INDEX 01 00:00:00
FILE "6. Michael Whalen - Duck Walk.flac" WAVE
  TRACK 06 AUDIO
    TITLE "Duck Walk"
    PERFORMER "Michael Whalen, Michael League, Vinne Colaiuta"
    ISRC QMPK41800484
    INDEX 01 00:00:00
FILE "7. Michael Whalen - Gringo Suave.flac" WAVE
  TRACK 07 AUDIO
    TITLE "Gringo Suave"
    PERFORMER "Michael Whalen, Michael League, Vinne Colaiuta"
    ISRC QMPK41800485
    INDEX 01 00:00:00
FILE "8. Michael Whalen - Benny's Brooklyn Blues.flac" WAVE
  TRACK 08 AUDIO
    TITLE "Benny's Brooklyn Blues"
    PERFORMER "Michael Whalen, Michael League, Vinne Colaiuta"
    ISRC QMPK41800486
    INDEX 01 00:00:00
FILE "9. Michael Whalen - Song at Midnight.flac" WAVE
  TRACK 09 AUDIO
    TITLE "Song at Midnight"
    PERFORMER "Michael Whalen, Michael League, Vinne Colaiuta"
    ISRC QMPK41800487
    INDEX 01 00:00:00
FILE "10. Michael Whalen - Blues for You.flac" WAVE
  TRACK 10 AUDIO
    TITLE "Blues for You"
    PERFORMER "Michael Whalen, Michael League, Vinne Colaiuta"
    ISRC QMPK41800488
    INDEX 01 00:00:00
Лог проверки качества
CUE Corrector v. 8.3.5 / b. 913 (Apr. 22, 2019)
————————————————————————————————————————————————————————————————————————
Michael Whalen / Michael Whalen & The Fire Brigade

Folder: 2019 Michael Whalen - Michael Whalen & The Fire Brigade {Ropeadope} [WEB]
Audio files:
    1. Michael Whalen - Code 10-80.flac [04:15.720; FLAC • 1112 kbps • 16 bit \ 44100 Hz • stereo; 33.91 MB (35 561 609 B)]
    2. Michael Whalen - Flabbergasted.flac [05:13.693; FLAC • 1080 kbps • 16 bit \ 44100 Hz • stereo; 40.42 MB (42 384 398 B)]
    3. Michael Whalen - Slippery Slope.flac [03:33.280; FLAC • 1108 kbps • 16 bit \ 44100 Hz • stereo; 28.18 MB (29 545 903 B)]
    4. Michael Whalen - Go-Go Bird.flac [04:34.867; FLAC • 1097 kbps • 16 bit \ 44100 Hz • stereo; 35.96 MB (37 705 286 B)]
    5. Michael Whalen - A Childish Dream.flac [04:15.507; FLAC • 1020 kbps • 16 bit \ 44100 Hz • stereo; 31.10 MB (32 606 285 B)]
    6. Michael Whalen - Duck Walk.flac [04:37.293; FLAC • 1078 kbps • 16 bit \ 44100 Hz • stereo; 35.64 MB (37 367 135 B)]
    7. Michael Whalen - Gringo Suave.flac [04:11.493; FLAC • 1064 kbps • 16 bit \ 44100 Hz • stereo; 31.91 MB (33 460 581 B)]
    8. Michael Whalen - Benny's Brooklyn Blues.flac [04:26.387; FLAC • 957 kbps • 16 bit \ 44100 Hz • stereo; 30.41 MB (31 887 632 B)]
    9. Michael Whalen - Song at Midnight.flac [04:38.480; FLAC • 618 kbps • 16 bit \ 44100 Hz • stereo; 20.54 MB (21 536 043 B)]
    10. Michael Whalen - Blues for You.flac [09:23.067; FLAC • 1027 kbps • 16 bit \ 44100 Hz • stereo; 68.99 MB (72 336 976 B)]

Accuracy: -m0

File 1. Michael Whalen - Code 10-80             - 100% CDDA [04:15:54]
File 2. Michael Whalen - Flabbergasted          - 100% CDDA [05:13:52]
File 3. Michael Whalen - Slippery Slope         - 100% CDDA [03:33:21]
File 4. Michael Whalen - Go-Go Bird             -  95% MPEG [04:34:65]
File 5. Michael Whalen - A Childish Dream       - 100% CDDA [04:15:38]
File 6. Michael Whalen - Duck Walk              - 100% CDDA [04:37:22]
File 7. Michael Whalen - Gringo Suave           - 100% CDDA [04:11:37]
File 8. Michael Whalen - Benny's Brooklyn Blues - 100% CDDA [04:26:29]
File 9. Michael Whalen - Song at Midnight       -  43% CDDA [04:38:36]
File 10. Michael Whalen - Blues for You         - 100% CDDA [09:23:05]
————— Summary: —————
These tracks looks like CDDA with probability 100%.
————————————————————————————————————————————————————————————————————————

ANALYZER:
    auCDtect: CD records authenticity detector, version 0.8.2
    Copyright (c) 2004 Oleg Berngardt. All rights reserved.
    Copyright (c) 2004 Alexander Djourik. All rights reserved.

Time elapsed: 2 m 01 s
Log created at May 14, 2019 18:59:49

=== D1A68FE0277B14BA7449EFDC9C174BF4EB7DD48516C6E147F547B145A2382B77 ===
Приватный:
Нет (DHT включён)
Размер:
358.89 Мб (376,324,729 байт) » файлов: 16
Участники:
14 раздают, 0 качают (14 участников всего)
Внешние участники:
--- [ Обновить ]
Никого нет на раздаче - пишите личное сообщение M0p94ok
No seeders - write personal message to M0p94ok
19:28
26
Нет комментариев. Ваш будет первым!