Поиск

2019 Kim Nolan - Sunday Jazz {iM Kim Nolan} [WEB]

2019 Kim Nolan - Sunday Jazz {iM Kim Nolan} [WEB]
Дата издания диска:
1 марта 2019
Номер по каталогу:
iM Kim Nolan
Носитель:
WEB
Аудиокодек:
FLAC (*.flac)
Тип рипа:
tracks
Битрейт аудио:
lossless
Время звучания:
00:17:32
Наличие сканов:
только обложка
Релизёр (источник):
M0p94ok
Треклист:

1. Take 6
2. Funky Daddy
3. Sunday Morning Ballad
4. Blues 16
5. Pleasant Anticipation
6. Late November
7. Groove to Move

 
DRM.log

foobar2000 1.4.3 / Dynamic Range Meter 1.1.1
log date: 2019-05-14 20:27:32

--------------------------------------------------------------------------------
Analyzed: Kim Nolan / Sunday Jazz
--------------------------------------------------------------------------------

DR         Peak         RMS     Duration Track
--------------------------------------------------------------------------------
DR10      -0.48 dB   -11.67 dB      2:11 01-Take 6
DR11       0.00 dB   -12.06 dB      2:20 02-Funky Daddy
DR6       -0.30 dB    -8.39 dB      2:27 03-Sunday Morning Ballad
DR7       -0.30 dB    -9.42 dB      2:40 04-Blues 16
DR11      -0.30 dB   -12.32 dB      2:42 05-Pleasant Anticipation
DR7       -0.30 dB    -8.39 dB      2:48 06-Late November
DR10      -0.30 dB   -11.08 dB      2:26 07-Groove to Move
--------------------------------------------------------------------------------

Number of tracks:  7
Official DR value: DR9

Samplerate:        44100 Hz
Channels:          2
Bits per sample:   16
Bitrate:           817 kbps
Codec:             FLAC
================================================================================ 

Содержание индексной карты (.CUE)
REM GENRE Jazz
REM DATE 01-03-2019
PERFORMER "Kim Nolan"
TITLE "Sunday Jazz"
FILE "1. Kim Nolan - Take 6.flac" WAVE
  TRACK 01 AUDIO
    TITLE "Take 6"
    PERFORMER "Kim Nolan"
    ISRC CH6541917152
    INDEX 01 00:00:00
FILE "2. Kim Nolan - Funky Daddy.flac" WAVE
  TRACK 02 AUDIO
    TITLE "Funky Daddy"
    PERFORMER "Kim Nolan"
    ISRC CH6541917153
    INDEX 01 00:00:00
FILE "3. Kim Nolan - Sunday Morning Ballad.flac" WAVE
  TRACK 03 AUDIO
    TITLE "Sunday Morning Ballad"
    PERFORMER "Kim Nolan"
    ISRC CH6541917154
    INDEX 01 00:00:00
FILE "4. Kim Nolan - Blues 16.flac" WAVE
  TRACK 04 AUDIO
    TITLE "Blues 16"
    PERFORMER "Kim Nolan"
    ISRC CH6541917155
    INDEX 01 00:00:00
FILE "5. Kim Nolan - Pleasant Anticipation.flac" WAVE
  TRACK 05 AUDIO
    TITLE "Pleasant Anticipation"
    PERFORMER "Kim Nolan"
    ISRC CH6541917156
    INDEX 01 00:00:00
FILE "6. Kim Nolan - Late November.flac" WAVE
  TRACK 06 AUDIO
    TITLE "Late November"
    PERFORMER "Kim Nolan"
    ISRC CH6541917157
    INDEX 01 00:00:00
FILE "7. Kim Nolan - Groove to Move.flac" WAVE
  TRACK 07 AUDIO
    TITLE "Groove to Move"
    PERFORMER "Kim Nolan"
    ISRC CH6541917158
    INDEX 01 00:00:00
Лог проверки качества
CUE Corrector v. 8.3.5 / b. 913 (Apr. 22, 2019)
————————————————————————————————————————————————————————————————————————
Kim Nolan / Sunday Jazz

Folder: 2019 Kim Nolan - Sunday Jazz {iM Kim Nolan} [WEB]
Audio files:
    1. Kim Nolan - Take 6.flac [02:11.467; FLAC • 899 kbps • 16 bit \ 44100 Hz • stereo; 14.10 MB (14 784 406 B)]
    2. Kim Nolan - Funky Daddy.flac [02:20.360; FLAC • 958 kbps • 16 bit \ 44100 Hz • stereo; 16.04 MB (16 822 170 B)]
    3. Kim Nolan - Sunday Morning Ballad.flac [02:26.667; FLAC • 806 kbps • 16 bit \ 44100 Hz • stereo; 14.09 MB (14 778 822 B)]
    4. Kim Nolan - Blues 16.flac [02:40.000; FLAC • 1051 kbps • 16 bit \ 44100 Hz • stereo; 20.06 MB (21 033 792 B)]
    5. Kim Nolan - Pleasant Anticipation.flac [02:41.960; FLAC • 922 kbps • 16 bit \ 44100 Hz • stereo; 17.80 MB (18 668 828 B)]
    6. Kim Nolan - Late November.flac [02:48.000; FLAC • 862 kbps • 16 bit \ 44100 Hz • stereo; 17.27 MB (18 105 860 B)]
    7. Kim Nolan - Groove to Move.flac [02:26.400; FLAC • 840 kbps • 16 bit \ 44100 Hz • stereo; 14.66 MB (15 375 284 B)]

Accuracy: -m0

File 1. Kim Nolan - Take 6                - 100% CDDA [02:11:35]
File 2. Kim Nolan - Funky Daddy           - 100% CDDA [02:20:27]
File 3. Kim Nolan - Sunday Morning Ballad - 100% CDDA [02:26:50]
File 4. Kim Nolan - Blues 16              - 100% CDDA [02:40:00]
File 5. Kim Nolan - Pleasant Anticipation - 100% CDDA [02:41:72]
File 6. Kim Nolan - Late November         - 100% CDDA [02:48:00]
File 7. Kim Nolan - Groove to Move        - 100% CDDA [02:26:30]
————— Summary: —————
These tracks looks like CDDA with probability 100%.
————————————————————————————————————————————————————————————————————————

ANALYZER:
    auCDtect: CD records authenticity detector, version 0.8.2
    Copyright (c) 2004 Oleg Berngardt. All rights reserved.
    Copyright (c) 2004 Alexander Djourik. All rights reserved.

Time elapsed: 1 m 04 s
Log created at May 14, 2019 20:28:12

=== CEF960DB278913D5BAB5FC30AA40A80A00DD4A7733100AD63DF043C7D26A4159 ===
Приватный:
Нет (DHT включён)
Размер:
114.44 Мб (119,999,143 байт) » файлов: 13
Участники:
4 раздают, 0 качают (4 участников всего)
Внешние участники:
2 раздают, 0 качают (2 участников всего) [ Обновить ]
20:34
10
Нет комментариев. Ваш будет первым!