Вы используете незарегистрированную версию компонента "Вкладки"!

Поиск

2017 VA - Audiophile Piano Collection {Chesky} [24-96]

2017 VA - Audiophile Piano Collection {Chesky} [24-96]
Стили:
Дата издания диска:
13 января 2017
Издатель (лейбл):
Носитель:
WEB
Формат:
PCM
Тип рипа:
tracks+.cue
Количество каналов:
2.0
Разрядность/ЧД:
24/96
Битрейт аудио:
lossless
Время звучания:
01:04:39
Наличие сканов:
да
Страна-производитель диска (релиза):
USA
Релизёр (источник):
M0p94ok
Лог проверки качества
foobar2000 1.4.3 / Dynamic Range Meter 1.1.1
log date: 2020-06-25 07:44:14

--------------------------------------------------------------------------------
Analyzed: Bob Belden / Ron Carter / Jimmy Cobb / Billly Drummond / Jon Faddis / Joe Farnsworth / Al Foster / John Hart / Louis Hayes / David Hazeltine / John Hicks / Joe Henderson / Hank Jones / Christian McBride / George Mraz / Nicholas Payton / Nat Reeves / McCoy Tyner / Buster Williams / Sam Yahel / Audiophile Piano Collection (1)
          Cobb, Jones, McBride / Audiophile Piano Collection (2)
          David Chesky / Audiophile Piano Collection (3)
          David Finck & Shelly Berg / Audiophile Piano Collection (4)
          Hazeltine, Mraz, Drummond / Audiophile Piano Collection (5)
          John Hicks/Buster Williams/Louis Hayes / Audiophile Piano Collection (6)
          Kenny Barron & Mark Sherman / Audiophile Piano Collection (7)
          McCoy Tyner / Audiophile Piano Collection (8)
          Monty Alexander / Audiophile Piano Collection (9)
--------------------------------------------------------------------------------

DR         Peak         RMS     Duration Track
--------------------------------------------------------------------------------
DR14      -0.80 dB   -18.93 dB      6:19 09-Naima
DR14      -3.91 dB   -22.09 dB      6:27 02-Lotus Blossom
DR15      -1.65 dB   -23.30 dB      1:53 06-Rag No. 1 "The New Yorker"
DR14      -0.66 dB   -18.50 dB      8:00 08-Dindi
DR15      -0.03 dB   -18.19 dB      6:20 03-Alone Together
DR15       0.00 dB   -17.17 dB      6:46 10-Fly Little Bird Fly
DR13      -0.64 dB   -17.92 dB      6:12 04-Afternoon in Paris
DR17      -1.34 dB   -22.66 dB      9:14 05-Beautiful Love
DR18      -0.01 dB   -20.54 dB      5:07 01-The Good Life
--------------------------------------------------------------------------------

Number of tracks:  9
Official DR value: DR15

Samplerate:        96000 Hz
Channels:          2
Bits per sample:   24
Bitrate:           2945 kbps
Codec:             FLAC
================================================================================
Any questions - support@pro-jazz.com. Есть вопросы - support@pro-jazz.com
07:48
383
Нет комментариев. Ваш будет первым!