Вы используете незарегистрированную версию компонента "Вкладки"!

Поиск

2020 Paul Jarret feat. Hannah Tolf, Eleonore Billy & Etienne Renard – Emma {Neuklang} [24-44,1]

2020 Paul Jarret feat. Hannah Tolf, Eleonore Billy & Etienne Renard – Emma {Neuklang} [24-44,1]
Издатель (лейбл):
Битрейт аудио:
lossless
Доп. инфо:

Формат записи/Источник записи: [TR24][OF]
Наличие водяных знаков: Нет
Год издания: 2020
Продолжительность: 00:47:02
Наличие сканов в содержимом раздачи: Только обложка
Источник: qobuz
Контейнер: FLAC (*.flac)
Тип рипа: tracks
Разрядность: 24/44,1
Формат: PCM
Количество каналов: 2.0

Лог проверки качества
foobar2000 1.3.16 / Dynamic Range Meter 1.1.1
log date: 2020-05-07 20:31:49

––––––––––––––––––––––––––––––––––––––––
Analyzed: Paul Jarret feat. Hannah Tolf, Éléonore Billy & Étienne Renard / Emma
––––––––––––––––––––––––––––––––––––––––

DR Peak RMS Duration Track
––––––––––––––––––––––––––––––––––––––––
DR10 -0.48 dB -15.11 dB 12:53 01-Sjutton AÌŠr
DR10 -0.74 dB -14.82 dB 8:09 02-The Crossing
DR11 -0.79 dB -16.64 dB 5:51 03-Amerikavisan
DR10 -0.68 dB -14.67 dB 9:17 04-Svart Bröd
DR10 -0.74 dB -15.59 dB 4:41 05-Kanon
DR10 -0.39 dB -15.42 dB 6:29 06-Beslut
––––––––––––––––––––––––––––––––––––––––

Number of tracks: 6
Official DR value: DR10

Samplerate: 44100 Hz
Channels: 2
Bits per sample: 24
Bitrate: 1339 kbps
Codec: FLAC
================================================================================
Any questions - support@pro-jazz.com. Есть вопросы - support@pro-jazz.com
19:20
291
Нет комментариев. Ваш будет первым!