Вы используете незарегистрированную версию компонента "Вкладки"!

Поиск

1991 Aaron Neville - Warm Your Heart (2017) {A&M} [DSD64]

1991 Aaron Neville - Warm Your Heart (2017) {A&M} [DSD64]
Стили:
Издатель (лейбл):
Битрейт аудио:
lossless
Доп. инфо:

Формат записи/Источник записи: [DSD][SACD-R]
Наличие водяных знаков: Нет
Год издания/переиздания диска: 1991/2017
Продолжительность: 00:49:56
Наличие сканов в содержимом раздачи: Только обложка альбома

Контейнер: DSF (*.dsf)
Тип рипа: tracks
Разрядность: 64(2,8 MHz/1 Bit)
Формат: DSD
Количество каналов: 2.0

https://www.discogs.com/ru/Aaron-Neville-Warm-Your-Heart/release/10787696
Источник (релизер): wardrobemalfunction (PS³SACD)

Лог проверки качества
=================================================================
foobar2000 1.4 / Dynamic Range Meter 1.1.1
log date: 2020-05-02 00:16:23
--------------------------------------------------------------------------------
Analyzed: Aaron Neville/ Linda Ronstadt / Warm Your Heart SACD (1)
          Aaron Neville / Warm Your Heart SACD (2-13)
--------------------------------------------------------------------------------
DR         Peak         RMS     Duration Track
--------------------------------------------------------------------------------
DR13      -8.29 dB   -26.11 dB      3:11 09-Close Your Eyes
DR14      -5.53 dB   -23.84 dB      3:07 01-Louisiana 1927
DR16      -5.18 dB   -23.25 dB      4:26 02-Everybody Plays The Fool
DR15      -6.42 dB   -24.21 dB      4:58 03-It Feels Like Rain
DR16      -5.03 dB   -23.83 dB      3:01 04-Somewhere Somebody
DR17      -5.55 dB   -26.00 dB      2:43 05-Don't Go Please Stay
DR17      -5.37 dB   -26.17 dB      3:33 06-With You In Mind
DR16      -5.34 dB   -25.87 dB      4:46 07-That's The Way She Loves
DR17      -5.30 dB   -24.00 dB      4:35 08-Angola Bound
DR17      -5.12 dB   -23.72 dB      3:22 10-La Vie Dansante
DR16      -5.62 dB   -24.28 dB      3:51 11-Warm Your Heart
DR15      -7.56 dB   -25.25 dB      4:02 12-I Bid You Goodnight
DR12      -8.18 dB   -24.68 dB      4:41 13-Ave Maria
--------------------------------------------------------------------------------
Number of tracks:  13
Official DR value: DR15

Samplerate:        2822400 Hz / PCM Samplerate: 176400 Hz
Channels:          2
Bits per sample:   1
Bitrate:           5645 kbps
Codec:             DSD64
================================================================================
Any questions - support@pro-jazz.com. Есть вопросы - support@pro-jazz.com
23:12
301
Нет комментариев. Ваш будет первым!