Поиск

2017 Tommy “CGP” Emmanuel & David “Dawg” Grisman - Pickin' {Acoustic Disc} [24-96]

2017 Tommy “CGP” Emmanuel & David “Dawg” Grisman - Pickin' {Acoustic Disc} [24-96]
Треклист:

01. Zorro's Last Ride (3:11)
02. Cinderella's Fella (3:22)
03. CGP & Dawg (4:51)
04. Farm & Fun Time (3:09)
05. Newly Wedding (4:38)
06. Sweet Georgia Brown (3:52)
07. Standing Rock (3:52)
08. Dawg's Waltz (3:44)
09. Tipsy Gypsy (3:14)
10. Tracy's Tune (5:20)
11. Port Townsend Blues (3:09)
12. Waltzing Matilda (2:19)

Доп. инфо:

Формат записи/Источник записи: [TR24][OF]
Наличие водяных знаков: Нет
Год издания/переиздания диска: 2017
Издатель (лейбл): Acoustic Disc
Продолжительность: 44:40
Наличие сканов в содержимом раздачи: Буклет PDF

Контейнер: FLAC (*.flac)
Тип рипа: tracks
Разрядность: 24/96
Формат: PCM
Количество каналов: 2.0

Источник: nugs.net

Лог проверки качества
foobar2000 1.3.9 / Dynamic Range Meter 1.1.1
log date: 2020-01-07 10:40:27

--------------------------------------------------------------------------------
Analyzed: Tommy “CGP” Emmanuel & David “Dawg” Grisman / Pickin'
--------------------------------------------------------------------------------

DR         Peak         RMS     Duration Track
--------------------------------------------------------------------------------
DR13      -0.72 dB   -16.27 dB      3:11 01-Zorro's Last Ride
DR15       0.00 dB   -19.75 dB      3:22 02-Cinderella's Fella
DR15      -0.24 dB   -18.23 dB      4:51 03-CGP & Dawg
DR10      -2.00 dB   -14.37 dB      3:09 04-Farm & Fun Time
DR15       0.00 dB   -17.45 dB      4:38 05-Newly Wedding
DR14      -0.20 dB   -18.39 dB      3:52 06-Sweet Georgia Brown
DR12      -0.30 dB   -14.84 dB      3:52 07-Standing Rock
DR14      -0.20 dB   -16.74 dB      3:44 08-Dawg's Waltz
DR16      -0.20 dB   -19.10 dB      3:14 09-Tipsy Gypsy
DR17      -0.13 dB   -20.87 dB      5:20 10-Tracy's Tune
DR12      -1.91 dB   -15.55 dB      3:09 11-Port Townsend Blues
DR11      -1.94 dB   -15.21 dB      2:19 12-Waltzing Matilda
--------------------------------------------------------------------------------

Number of tracks:  12
Official DR value: DR14

Samplerate:        96000 Hz
Channels:          2
Bits per sample:   24
Bitrate:           2853 kbps
Codec:             FLAC
================================================================================
Приватный:
Нет (DHT включён)
Размер:
892.00 Мб (935,326,562 байт) » файлов: 17
Участники:
0 раздают, 18 качают (18 участников всего)
Внешние участники:
9 раздают, 3 качают (12 участников всего) [ Обновить ]
Есть вопросы - пишите личное сообщение пользователю M0p94ok.
22:11
20
Нет комментариев. Ваш будет первым!