Поиск

2001 Frank Sinatra, Dean Martin, Sammy Davis, Jr. - Eee-O 11 (The Best Of The Rat Pack) (2019) {RevOla} [24-96]

2001 Frank Sinatra, Dean Martin, Sammy Davis, Jr. - Eee-O 11 (The Best Of The Rat Pack) (2019) {RevOla} [24-96]
Стили:
Треклист:

01. I'm Gonna Live Till I Die (Frank Sinatra) (1:53)
02. Ain't That A Kick In The Head? (Dean Martin) (2:24)
03. Too Close For Comfort (Sammy Davis, Jr.) (3:01)
04. Me And My Shadow (Frank Sinatra & Sammy Davis, Jr.) (3:05)
05. (Love Is) The Tender Trap (Frank Sinatra) (2:56)
06. Volare (Nel Blu, Dipinto Di Blu) (Dean Martin) (2:59)
07. Mr. Success (Frank Sinatra) (2:40)
08. A Lot Of Livin' To Do (Sammy Davis, Jr.) (2:45)
09. You Make Me Feel So Young (Frank Sinatra) (2:55)
10. Sam's Song (Sammy Davis, Jr. & Dean Martin) (2:42)
11. When You're Smiling (Dean Martin) (3:02)
12. The Lady Is A Tramp (Frank Sinatra) (3:14)
13. The Birth Of The Blues (Sammy Davis, Jr.) (3:17)
14. You're Nobody 'Til Somebody Loves You (Dean Martin) (2:12)
15. Chicago (Frank Sinatra) (2:12)
16. Sittin' On Top Of The World (Dean Martin) (2:11)
17. Witchcraft (Frank Sinatra) (2:51)
18. Eee-O Eleven (Sammy Davis, Jr.) (2:44)

Доп. инфо:

Формат записи/Источник записи: [TR24][OF]
Наличие водяных знаков: Нет
Издание: Remastered
Год издания/переиздания диска: 2001/2019
Издатель (лейбл): RevOla Records
Продолжительность: 49:05
Наличие сканов в содержимом раздачи: Только обложка альбома

Контейнер: FLAC (*.flac)
Тип рипа: tracks
Разрядность: 24/96
Формат: PCM
Количество каналов: 2.0

Источник: qobuz.com

Лог проверки качества
foobar2000 1.3.9 / Dynamic Range Meter 1.1.1
log date: 2020-01-07 17:29:43

--------------------------------------------------------------------------------
Analyzed: Dean Martin / Eee-O 11 (The Best Of The Rat Pack) (1-5)
          Frank Sinatra & Sammy Davis, Jr. / Eee-O 11 (The Best Of The Rat Pack) (6)
          Frank Sinatra / Eee-O 11 (The Best Of The Rat Pack) (7-13)
          Sammy Davis, Jr. & Dean Martin / Eee-O 11 (The Best Of The Rat Pack) (14)
          Sammy Davis, Jr. / Eee-O 11 (The Best Of The Rat Pack) (15-18)
--------------------------------------------------------------------------------

DR         Peak         RMS     Duration Track
--------------------------------------------------------------------------------
DR9       -0.10 dB   -11.98 dB      2:24 02-Ain't That A Kick In The Head?
DR11      -0.08 dB   -13.92 dB      2:59 06-Volare (Nel Blu, Dipinto Di Blu)
DR11      -0.84 dB   -14.22 dB      3:02 11-When You're Smiling
DR13       0.00 dB   -15.14 dB      2:12 14-You're Nobody 'Til Somebody Loves You
DR12       0.00 dB   -13.47 dB      2:11 16-Sittin' On Top Of The World
DR11       0.00 dB   -13.21 dB      3:05 04-Me And My Shadow
DR10       0.00 dB   -11.51 dB      1:53 01-I'm Gonna Live Till I Die
DR13       0.00 dB   -14.82 dB      2:56 05-(Love Is) The Tender Trap
DR11       0.00 dB   -14.31 dB      2:40 07-Mr. Success
DR13       0.00 dB   -15.41 dB      2:55 09-You Make Me Feel So Young
DR15       0.00 dB   -16.51 dB      3:14 12-The Lady Is A Tramp
DR12       0.00 dB   -14.60 dB      2:12 15-Chicago
DR12       0.00 dB   -15.02 dB      2:51 17-Witchcraft
DR12      -0.52 dB   -15.72 dB      2:42 10-Sam's Song
DR12      -0.51 dB   -14.62 dB      3:01 03-Too Close For Comfort
DR9       -2.10 dB   -13.74 dB      2:45 08-A Lot Of Livin' To Do
DR9       -1.66 dB   -13.31 dB      3:17 13-The Birth Of The Blues
DR12      -1.24 dB   -16.16 dB      2:44 18-Eee-O Eleven
--------------------------------------------------------------------------------

Number of tracks:  18
Official DR value: DR11

Samplerate:        96000 Hz
Channels:          2
Bits per sample:   24
Bitrate:           2658 kbps
Codec:             FLAC
================================================================================
Приватный:
Нет (DHT включён)
Размер:
913.99 Мб (958,387,806 байт) » файлов: 22
Участники:
0 раздают, 0 качают (0 участников всего)
Внешние участники:
11 раздают, 4 качают (15 участников всего) [ Обновить ]
Есть вопросы - пишите личное сообщение пользователю M0p94ok.
09:41
15
Нет комментариев. Ваш будет первым!