Поиск

1947-1954 Walter Dobschinski & Berlin Radio Swingband - European Swing Giants (2018) {Jube Legends} [24-48]

1947-1954 Walter Dobschinski & Berlin Radio Swingband - European Swing Giants (2018) {Jube Legends} [24-48]
Дата записи диска:
февраль 1947 - 31 мая 1954
Место записи:
Berlin
Носитель:
WEB
Формат:
PCM
Тип рипа:
tracks
Контейнер:
FLAC (*.flac)
Количество каналов:
2.0
Разрядность/ЧД:
24/48
Формат записи/Источник записи:
[TR24][OF]
Время звучания:
01:10:58
Наличие сканов:
только обложка
Наличие водяных знаков:
нет
Релизёр (источник):
M0p94ok

Треклист:

01. Dob's Boogie-Woogie  02:31
02. Dob's Riff  02:39
03. Dobs-Dixie  02:46
04. And the Angels Sing  03:05
05. Berlin Express  02:48
06. Blue Skies  02:18
07. Der schwarze Panther  02:42
08. In the Mood  02:52
09. Honeysuckle Rose  02:32
10. My Blue Heaven  02:55
11. Muskrat Ramble  03:23
12. Star Dust  02:49
13. Lullaby of Broadway feat. Ilja Glusgal  02:55
14. Managua, Nicaragua feat. Rita Paul  02:54
15. Minnie from Trinidad feat. Rita Paul  02:35
16. St. Louis Blues  03:17
17. That's a Plenty  02:55
18. Your Father's Moustache  03:03
19. Schade um die Zeit feat. Detlev Lais  02:43
20. Boogie in B  02:51
21. The Bounceländer  02:46
22. Rag Mop feat. Sunshine Quartet  02:35
23. Optimisten Boogie  02:44
24. Embraceable You  03:04
25. 'S Wonderful feat. Ilja Glusgal  03:03

  • Berlin Radio Swingband / European Swing Giants: Walter Dobschinski (Remastered 2018) (1-19)
  • Detlev Lais / European Swing Giants: Walter Dobschinski (Remastered 2018) (20)
  • Ilja Glusgal / European Swing Giants: Walter Dobschinski (Remastered 2018) (21-22)
  • Rita Paul / European Swing Giants: Walter Dobschinski (Remastered 2018) (23-24)
  • Sunshine Quartet / European Swing Giants: Walter Dobschinski (Remastered 2018) (25)
Лог проверки качества
foobar2000 1.4.3 / Dynamic Range Meter 1.1.1
log date: 2020-02-18 21:26:54

--------------------------------------------------------------------------------
Analyzed: Berlin Radio Swingband / European Swing Giants: Walter Dobschinski (Remastered 2018) (1-19)
          Detlev Lais / European Swing Giants: Walter Dobschinski (Remastered 2018) (20)
          Ilja Glusgal / European Swing Giants: Walter Dobschinski (Remastered 2018) (21-22)
          Rita Paul / European Swing Giants: Walter Dobschinski (Remastered 2018) (23-24)
          Sunshine Quartet / European Swing Giants: Walter Dobschinski (Remastered 2018) (25)
--------------------------------------------------------------------------------

DR         Peak         RMS     Duration Track
--------------------------------------------------------------------------------
DR12       0.00 dB   -13.94 dB      2:32 01-Dob's Boogie-Woogie
DR12       0.00 dB   -13.87 dB      2:40 02-Dob's Riff
DR12       0.00 dB   -14.42 dB      2:46 03-Dobs-Dixie
DR13       0.00 dB   -15.13 dB      3:06 04-Wenn die Engel singen: And the Angels Sing
DR14       0.00 dB   -15.83 dB      2:49 05-Berlin Express
DR13       0.00 dB   -15.57 dB      2:18 06-The Jazz Singer: Blue Skies: Blue Skies
DR13       0.00 dB   -14.62 dB      2:42 07-Der schwarze Panther
DR12       0.00 dB   -14.51 dB      2:52 08-In the Mood
DR12       0.00 dB   -14.61 dB      2:33 09-Honeysuckle Rose
DR12       0.00 dB   -14.01 dB      2:55 10-My Blue Heaven
DR12       0.00 dB   -13.48 dB      3:23 11-Muskrat Ramble
DR11       0.00 dB   -14.57 dB      2:50 12-Star Dust
DR13       0.00 dB   -15.87 dB      3:18 16-St. Louis Blues
DR12       0.00 dB   -13.77 dB      2:56 17-That's a Plenty
DR13       0.00 dB   -15.16 dB      3:04 18-Your Father's Moustache
DR12       0.00 dB   -13.80 dB      2:51 20-Boogie in B
DR12       0.00 dB   -13.84 dB      2:47 21-The Bouncelander
DR12       0.00 dB   -13.11 dB      2:45 23-Das singende Hotel: Optimisten Boogie
DR11       0.00 dB   -14.44 dB      3:04 24-Girl Crazy: Embraceable You
DR12       0.00 dB   -13.95 dB      2:43 19-Schade um die Zeit
DR12       0.00 dB   -14.10 dB      2:55 13-Gold Diggers of 1935: Lullaby of Broadway
DR12       0.00 dB   -14.61 dB      3:03 25-'S Wonderful
DR14       0.00 dB   -15.38 dB      2:55 14-Managua, Nicaragua
DR10       0.00 dB   -13.16 dB      2:36 15-You Stepped Out Of a Dream (Live): Minnie from Trinidad
DR13       0.00 dB   -14.93 dB      2:35 22-Rag Mop
--------------------------------------------------------------------------------

Number of tracks:  25
Official DR value: DR12

Samplerate:        48000 Hz
Channels:          2
Bits per sample:   24
Bitrate:           1470 kbps
Codec:             FLAC
================================================================================
Приватный:
Нет (DHT включён)
Размер:
734.54 Мб (770,223,332 байт) » файлов: 27
Участники:
2 раздают, 0 качают (2 участников всего)
Внешние участники:
--- [ Обновить ]
Есть вопросы - пишите личное сообщение пользователю M0p94ok.
21:47
22
Нет комментариев. Ваш будет первым!