Поиск

2016 Prabhu Edouard - Kôlam {Quart de Lune} [24-44,1]

2016 Prabhu Edouard - Kôlam {Quart de Lune} [24-44,1]
Носитель:
WEB
Формат:
PCM
Тип рипа:
tracks
Контейнер:
FLAC (*.flac)
Количество каналов:
2.0
Разрядность/ЧД:
24/44,1
Формат записи/Источник записи:
[TR24][OF]
Время звучания:
00:51:41
Наличие сканов:
только обложка
Наличие водяных знаков:
нет
Релизёр (источник):
M0p94ok

Треклист:

01. Prem Gîta  05:56
02. Apsara (feat. Manickam Yogeswaran) - Manickam Yogeswaran  04:44
03. Sultana (feat. Sabir Khan) - Sabir Khan  09:06
04. Rangoli (feat. Runa Rizvi) - Runa Rizvi  04:20
05. Brise et bruine (feat. Jesse Bannister) - Jesse Bannister  04:53
06. Kochi  05:36
07. Nodi (feat. Paban Das Baul) - Paban Das Baul  06:11
08. Aïlassa  03:37
09. For a Stardust  03:08
10. Sohanukku  04:24
11. Padmâsini  04:46

Доп. инфо:

Лог проверки качества
foobar2000 1.3.16 / Dynamic Range Meter 1.1.1
log date: 2018-11-05 17:31:29

--------------------------------------------------------------------------------
Analyzed: Prabhu Edouard, Jesse Bannister / Kôlam (1)
          Prabhu Edouard, Manickam Yogeswaran / Kôlam (2)
          Prabhu Edouard, Paban Das Baul / Kôlam (3)
          Prabhu Edouard, Runa Rizvi / Kôlam (4)
          Prabhu Edouard, Sabir Khan / Kôlam (5)
          Prabhu Edouard / Kôlam (6-11)
--------------------------------------------------------------------------------

DR         Peak         RMS     Duration Track
--------------------------------------------------------------------------------
DR9       -0.04 dB   -10.98 dB      4:53 05-Brise Et Bruine (Feat. Jesse Bannister)
DR9       -0.06 dB   -10.01 dB      4:45 02-Apsara (Feat. Manickam Yogeswaran)
DR8       -0.05 dB   -10.75 dB      6:12 07-Nodi (Feat. Paban Das Baul)
DR8       -0.48 dB   -11.14 dB      4:20 04-Rangoli (Feat. Runa Rizvi)
DR9       -0.02 dB   -11.83 dB      9:06 03-Sultana (Feat. Sabir Khan)
DR8       -0.03 dB   -10.15 dB      5:56 01-Prem Gîta
DR8       -0.05 dB    -9.68 dB      5:37 06-Kochi
DR7        0.00 dB    -9.82 dB      3:37 08-Aïlassa
DR9       -0.06 dB   -11.56 dB      3:09 09-For A Stardust
DR8       -0.04 dB    -9.69 dB      4:25 10-Sohanukku
DR9        0.00 dB   -10.86 dB      4:46 11-Padmâsini
--------------------------------------------------------------------------------

Number of tracks:  11
Official DR value: DR8

Samplerate:        44100 Hz
Channels:          2
Bits per sample:   24
Bitrate:           1519 kbps
Codec:             FLAC
================================================================================
Приватный:
Нет (DHT включён)
Размер:
621.50 Мб (651,694,810 байт) » файлов: 13
Участники:
2 раздают, 0 качают (2 участников всего)
Внешние участники:
--- [ Обновить ]
Есть вопросы - пишите личное сообщение пользователю M0p94ok.
18:30
23
Нет комментариев. Ваш будет первым!