Вы используете незарегистрированную версию компонента "Вкладки"!

Поиск

2017 HUK's ELEVEN - Rescued From The Drawer {DeHai} [24-44,1]

2017 HUK's ELEVEN - Rescued From The Drawer {DeHai} [24-44,1]
Стили:
Носитель:
WEB
Формат:
PCM
Тип рипа:
tracks+.cue
Контейнер:
FLAC (*.flac)
Количество каналов:
2.0
Разрядность/ЧД:
24/44,1
Битрейт аудио:
lossless
Время звучания:
01:02:59
Наличие сканов:
web
Релизёр (источник):
M0p94ok
Лог проверки качества
foobar2000 1.5.5 / Dynamic Range Meter 1.1.1
log date: 2020-09-11 13:54:44

--------------------------------------------------------------------------------
Analyzed: HUK's ELEVEN / Rescued from the Drawer
--------------------------------------------------------------------------------

DR         Peak         RMS     Duration Track
--------------------------------------------------------------------------------
DR12      -0.10 dB   -13.06 dB      3:44 01-Lady Bird
DR12      -0.10 dB   -12.92 dB      5:25 02-Love for Sale
DR12      -0.10 dB   -13.22 dB      5:39 03-S'posin' I Should Fall in Love with You
DR13      -0.10 dB   -14.73 dB      6:25 04-The Nearness of You
DR12      -0.10 dB   -13.01 dB      4:42 05-You'd Be so Nice to Come Home To
DR12      -0.10 dB   -13.13 dB      4:49 06-Tanga
DR12      -0.10 dB   -13.02 dB      3:58 07-Soon
DR12      -0.10 dB   -13.22 dB      3:43 08-It Might as Well Be Spring
DR13      -0.36 dB   -15.02 dB      5:51 09-Indian Summer
DR12      -0.10 dB   -12.85 dB      4:10 10-Valse Hot
DR12      -0.10 dB   -13.44 dB      3:59 11-On a Slow Boat to China
DR12      -0.10 dB   -13.23 dB      5:46 12-Groove Merchant
DR12      -0.10 dB   -12.73 dB      4:55 13-Days of Wine and Roses
--------------------------------------------------------------------------------

Number of tracks:  13
Official DR value: DR12

Samplerate:        44100 Hz
Channels:          2
Bits per sample:   24
Bitrate:           1527 kbps
Codec:             FLAC
================================================================================
Any questions - support@pro-jazz.com. Есть вопросы - support@pro-jazz.com
14:38
191
Нет комментариев. Ваш будет первым!