Вы используете незарегистрированную версию компонента "Вкладки"!

Поиск

2019 Güç Başar Gülle - Reverse Perspective {Tmc Film Muzik} [24-44,1]

2019 Güç Başar Gülle - Reverse Perspective {Tmc Film Muzik} [24-44,1]
Стили:
Носитель:
WEB
Формат:
PCM
Тип рипа:
tracks+.cue
Контейнер:
FLAC (*.flac)
Количество каналов:
2.0
Разрядность/ЧД:
24/44,1
Битрейт аудио:
lossless
Время звучания:
00:28:40
Наличие сканов:
web
Страна-производитель диска (релиза):
Turkey
Релизёр (источник):
M0p94ok
Лог проверки качества
foobar2000 1.5.5 / Dynamic Range Meter 1.1.1
log date: 2020-09-11 12:23:00

--------------------------------------------------------------------------------
Analyzed: Güç Başar Gülle / Reverse Perspective
--------------------------------------------------------------------------------

DR         Peak         RMS     Duration Track
--------------------------------------------------------------------------------
DR10      -0.62 dB   -11.97 dB      4:03 01-Parker's Tappings
DR9       -0.61 dB   -11.95 dB      5:20 02-Light & Shade
DR12      -0.62 dB   -15.11 dB      6:13 03-Silent Steps
DR9       -0.62 dB   -11.42 dB      6:44 04-Reverse Perspective
DR9       -0.61 dB   -11.43 dB      6:22 05-Inversional Symmetry
--------------------------------------------------------------------------------

Number of tracks:  5
Official DR value: DR10

Samplerate:        44100 Hz
Channels:          2
Bits per sample:   24
Bitrate:           1522 kbps
Codec:             FLAC
================================================================================
Any questions - support@pro-jazz.com. Есть вопросы - support@pro-jazz.com
12:34
204
Нет комментариев. Ваш будет первым!