Поиск

2017 Die Enttauschung - Lavaman {Intakt} [24-44,1]

2017 Die Enttauschung - Lavaman {Intakt} [24-44,1]
Дата записи диска:
11 апреля - 12 апреля 2017
Место записи:
Berlinaudio-Studio, Berlin, Germany
Дата издания диска:
17 ноября 2017
Издатель (лейбл):
Номер по каталогу:
289
Носитель:
WEB
Формат:
PCM
Тип рипа:
tracks+.cue
Контейнер:
APE (*.ape)
Количество каналов:
2.0
Разрядность/ЧД:
24/44,1
Битрейт аудио:
lossless
Время звучания:
01:01:36
Наличие сканов:
web
Наличие водяных знаков:
нет
Страна-производитель диска (релиза):
Switzerland
Релизёр (источник):
M0p94ok

Треклист:

01. Wer nichts fürth, fürth fürth  04:31
02. Fälschlich  03:28
03. Die Wohlgesonnten  06:01
04. Voraussichtlich  07:01
05. Christian und Isolde  01:48
06. Das Jan im Stück  03:02
07. Ausgekannt  04:02
08. Jazz als Hobby  03:02
09. Lavaman  04:37
10. Reich durch Pfand  04:32
11. Chicoree  02:16
12. Unsäglich  02:03
13. Reich durch Jazz  04:52
14. Bulyah-Dath  03:22
15. So tun als ob  03:58
16. Das Jan am Stück  03:02

Лог проверки качества
foobar2000 1.6.2 / Dynamic Range Meter 1.1.1
log date: 2020-12-12 18:10:34

--------------------------------------------------------------------------------
Analyzed: Die Enttauschung / Lavaman
--------------------------------------------------------------------------------

DR         Peak         RMS     Duration Track
--------------------------------------------------------------------------------
DR11      -0.01 dB   -13.86 dB      4:32 01-Wer nichts fürth, fürth Fürth
DR9       -0.01 dB   -12.82 dB      3:29 02-Fälschlich
DR12      -0.01 dB   -14.66 dB      6:01 03-Die Wohlgesonnten
DR12      -0.01 dB   -14.14 dB      7:01 04-Voraussichtlich
DR12      -0.01 dB   -15.38 dB      1:49 05-Christian und Isolde
DR14      -0.01 dB   -17.82 dB      3:03 06-Das Jan am Stück
DR11      -0.01 dB   -14.73 dB      4:02 07-Ausgekannt
DR11      -0.01 dB   -13.69 dB      3:03 08-Jazz als Hobby
DR11      -0.01 dB   -14.98 dB      4:37 09-Lavaman
DR12      -0.01 dB   -14.59 dB      4:32 10-Reich durch Pfand
DR11      -0.01 dB   -13.42 dB      2:16 11-Chicoree
DR14      -0.01 dB   -17.26 dB      2:03 12-Unsäglich
DR11      -0.01 dB   -13.42 dB      4:53 13-Reich durch Jazz
DR10      -0.01 dB   -12.45 dB      3:23 14-Bulyah-dath
DR11      -0.01 dB   -14.62 dB      3:58 15-So tun als ob
DR9       -0.01 dB   -12.94 dB      3:01 16-Das Jan am Stück
--------------------------------------------------------------------------------

Number of tracks:  16
Official DR value: DR11

Samplerate:        44100 Hz
Channels:          2
Bits per sample:   24
Bitrate:           1521 kbps
Codec:             FLAC
================================================================================
Приватный:
Нет (DHT включён)
Размер:
675.80 Мб (708,627,710 байт) » файлов: 18
Участники:
2 раздают, 0 качают (2 участников всего)
Внешние участники:
--- [ Обновить ]
No seeders - write personal message to M0p94ok. Нет сидеров - пишите в личку M0p94ok.
14:08
182
Нет комментариев. Ваш будет первым!