Поиск

2017 Adam Kolker - Beckon {Sunnyside} [24-88.2]

2017 Adam Kolker - Beckon {Sunnyside} [24-88.2]
Дата издания диска:
2 июня 2017
Носитель:
WEB
Формат:
PCM
Тип рипа:
tracks
Контейнер:
FLAC (*.flac)
Количество каналов:
2.0
Разрядность/ЧД:
24/88,2
Битрейт аудио:
lossless
Время звучания:
00:42:21
Наличие сканов:
только обложка
Наличие водяных знаков:
нет
Страна-производитель диска (релиза):
USA
Релизёр (источник):
M0p94ok
Треклист:

1. Millersville 03:46
2. Beckon 06:51
3. Cannonball 07:52
4. Slow Dance 06:40
5. Cycles 07:55
6. I Wish I Knew 05:24
7. Beautiful You 03:50

Доп. инфо:

Мастер деревянных духовых инструментов и композитор Адам Колкер экспериментировал с ансамблями разного размера, музыкантами с разным подходом, творческой студийной работой и смешиванием эклектичных жанров, чтобы создать свое произведение, которое отличается коммуникабельностью и искусным выражением.

Последние пару лет Колкер возглавлял динамичное и разностороннее трио с Билли Минцем, выдающимся барабанщиком и композитором, с которым Колкер регулярно играл в течение многих лет, и блестящим гитаристом Стивом Карденасом. Чуткое взаимодействие между тремя музыкантами создает захватывающую, трогательную музыку.

В своей последней записи Beckon Колкер представляет трио вместе с рядом произведений с ансамблем деревянных духовых инструментов. Наложение Колкера деревянных духовых инструментов стало важным элементом его записи. В этом новом проекте Колкер хотел более полно интегрировать духовой ансамбль с трио, и он собрал фантастическую группу профессиональных деревянных духовых исполнителей, а именно флейтиста Лоуренса Фельдмана, кларнетиста Дэвида Гулда и фаготиста Джеки Хендерсона.

Именно после сессий записи альбом действительно начал обретать форму. Колкер вырезал плейлист из множества записанных мелодий, вписывая нужные пьесы в программу, которая, по его мнению, соответствовала целостной эстетике, сосредоточенной на сильных композициях с целенаправленными мелодическими высказываниями и пышной гармонической чувствительностью.

Запись начинается с трио «Millersville», посвященного другу и учителю Колкера Рону Миллеру из Университета Майами. Заглавный трек начинается с трех деревянных духовых инструментов, поскольку тенор Колкера парит над нежной гармоничной кроватью. Энергичное «Cannonball» Минца - это ритмичный блюзовый ритм с бодрым ритмом и мощной гитарой Карденаса, который был написан для любимого саксофониста Джулиана Аддерли.

Прекрасный «Медленный танец» вдохновлен партитурой Тору Такемицу из оперы Акиры Куросавы «Ран», в которой одновременно используются мажорные и минорные тона в поэме медитативного тона. «Циклы» развились из круга квинтэссенционных упражнений с мелодией и гармониями, полученными из этого цикла резолюций, создавая вдохновленную Америкой мелодию, которая кажется одновременно сложной и прямой. «I Wish I Knew» Гарри Уоррена исполняется трио в теплой, лаконичной аранжировке. Программа завершается запоминающейся песней «Beautiful You» под управлением флейты, сочиненной Минцем, которая завершается прекрасной теноровой песней, закрывающей диск.

Прекрасный Beckon Адама Колкера - это кульминация объединения двух музыкальных течений: нового трио Колкера Билли Минца и Стива Карденаса и ансамбля деревянных духовых инструментов. Результат соблазняет слушателей невероятно пронзительной музыкой, сочетающей элементы джаза, классики и американы.

https://www.qobuz.com/de-de/album/beckon-adam-kolker/0016728148627

Лог проверки качества
foobar2000 1.3.16 / Dynamic Range Meter 1.1.1
log date: 2019-06-06 21:59:52

--------------------------------------------------------------------------------
Analyzed: Adam Kolker / Beckon
--------------------------------------------------------------------------------

DR         Peak         RMS     Duration Track
--------------------------------------------------------------------------------
DR14      -3.37 dB   -21.80 dB      3:46 01-Millerville
DR12      -1.44 dB   -16.99 dB      6:52 02-Beckon
DR12      -0.61 dB   -15.01 dB      7:53 03-Cannonball
DR13      -2.11 dB   -18.94 dB      6:40 04-Slow Dance
DR14      -0.34 dB   -18.95 dB      7:55 05-Cycles
DR13      -3.82 dB   -21.24 dB      5:24 06-I Wish I Knew
DR11      -3.35 dB   -20.35 dB      3:51 07-Beautiful You
--------------------------------------------------------------------------------

Number of tracks:  7
Official DR value: DR13

Samplerate:        88200 Hz
Channels:          2
Bits per sample:   24
Bitrate:           2436 kbps
Codec:             FLAC
================================================================================
Приватный:
Нет (DHT включён)
Размер:
754.93 Мб (791,605,310 байт) » файлов: 9
Участники:
4 раздают, 0 качают (4 участников всего)
Внешние участники:
--- [ Обновить ]
No seeders - write personal message to M0p94ok. Нет сидеров - пишите в личку M0p94ok.
09:58
45
Нет комментариев. Ваш будет первым!