Поиск

1974 Quincy Jones - Body Heat (2020) {A&M} [24-96]

1974 Quincy Jones - Body Heat (2020) {A&M} [24-96]
Издатель (лейбл):
Битрейт аудио:
lossless
Доп. инфо:

Формат записи/Источник записи: [TR24][OF]
Издание: Remastered
Год издания/переиздания диска: 1974/2020
Продолжительность: 00:38:28
Наличие сканов в содержимом раздачи: Нет

Контейнер: FLAC (*.flac)
Тип рипа: tracks
Разрядность: 24/96
Количество каналов: 2.0

Источник (релизер): HDTracks

Лог проверки качества
foobar2000 1.4.3 / Dynamic Range Meter 1.1.1
log date: 2021-03-02 20:10:24

--------------------------------------------------------------------------------
Analyzed: Quincy Jones / Body Heat
--------------------------------------------------------------------------------

DR         Peak         RMS     Duration Track
--------------------------------------------------------------------------------
DR11      -0.20 dB   -14.00 dB      3:54 01-Body Heat
DR12      -0.20 dB   -14.05 dB      4:59 02-Soul Saga (Song Of The Buffalo Soldier)
DR11      -0.20 dB   -14.20 dB      6:00 03-Everything Must Change
DR12      -0.20 dB   -13.87 dB      3:19 04-Boogie Joe The Grinder
DR10      -0.20 dB   -14.05 dB      1:04 05-Everything Must Change (Reprise)
DR11      -0.20 dB   -13.97 dB      6:25 06-One Track Mind
DR10      -0.20 dB   -12.84 dB      3:33 07-Just A Man
DR11      -0.20 dB   -12.61 dB      4:35 08-Along Came Betty
DR11      -0.20 dB   -14.94 dB      4:46 09-If I Ever Lose This Heaven
--------------------------------------------------------------------------------

Number of tracks:  9
Official DR value: DR11

Samplerate:        96000 Hz
Channels:          2
Bits per sample:   24
Bitrate:           2939 kbps
Codec:             FLAC
================================================================================
No seeders - write personal message to M0p94ok. Any questions - support@pro-jazz.com.
Нет сидеров - пишите в личку M0p94ok. Есть вопросы - support@pro-jazz.com
11:23
102
Нет комментариев. Ваш будет первым!