Поиск

2004 Aros - Train Song (2012) {Songlines} [DST64 ISO]

2004 Aros - Train Song (2012) {Songlines} [DST64 ISO]
Стили:
Дата записи диска:
9 ноября - 10 ноября 2002
Место записи:
Wisseloord Studio 1, Hilversum, Holland
Битрейт аудио:
lossless
Доп. инфо:

Формат записи/Источник записи: [SACD-R][OF]
Наличие водяных знаков: Нет
Год издания диска: 2004
Издатель (лейбл): Songlines Recordings - [SGL SA 1546-2]
Продолжительность: 01:06:12
Наличие сканов в содержимом раздачи: Да (сканы)

Контейнер: ISO (*.iso)
Тип рипа: image
Разрядность: 64(2,8 MHz/1 Bit)
Формат: DST64
Количество каналов: 5.0, 2.0 /recorded and mixed in DSD

Доп. информация: www.sa-cd.net
Источник (релизер): jazzyman pic

Амстердамский « Aros» - международный секстет под управлением канадского саксофониста Роба Армуса и австрийской классической пианистки Марион фон Тильцер. Среди других участников - ванкуверский трубач и руководитель оркестра новой музыки Джон Корсруд, пакистанская / шотландская классическая / джазовая / рок-скрипачка Энн Вуд, шотландский перкуссионист в стиле джаз / импровизация / рок / регги Алан Пурвес и немецкий басист Свен Шустер. Арос синтезирует множество влияний в собственном сочетании камерного джаза и современной новой музыки, включая американский джаз, европейскую классику, новую музыку и танго. Есть отголоски Баха, Колтрейна, романтизма 19 века, африканских полиритмов, раг и многого другого. Представьте себе, например, Астора Пьяццоллы и Филиппа Гласса, которые объединили свои усилия для создания модального джаза с периодическим кивком в пользу свободной импровизации. На самом деле существует целый ряд настроений и стилей, от душевной лирической близости до драйвовых вампиров соул-джаза. Записанная и сведенная полностью в формате DSD.

Лог проверки качества
foobar2000 1.6.2 / Замер динамического диапазона (DR) 1.1.1
Дата отчёта:  2020-12-13 22:05:08

--------------------------------------------------------------------------------
Анализ:   Aros  / Train Song
--------------------------------------------------------------------------------

DR         Пики         RMS           Продолжительность трека
--------------------------------------------------------------------------------
DR16      -4.93 дБ   -24.55 дБ      7:17 01-Zimbabwe
DR14      -3.69 дБ   -22.29 дБ      5:41 02-Road Song
DR14      -3.51 дБ   -22.72 дБ      4:59 03-Four'n a Half
DR14      -3.70 дБ   -22.55 дБ      4:04 04-Tango
DR11      -6.45 дБ   -21.64 дБ      6:53 05-Ostinato
DR15      -5.29 дБ   -23.60 дБ      5:09 06-Train Song
DR15      -5.24 дБ   -24.30 дБ      9:15 07-Fugatisme
DR12     -12.54 дБ   -27.08 дБ      1:21 08-One for Charlie
DR17      -0.39 дБ   -21.91 дБ      7:05 09-30
DR13      -7.78 дБ   -26.94 дБ      5:35 10-Song of the Heart
DR16      -0.94 дБ   -22.11 дБ      8:55 11-Rocket Song
--------------------------------------------------------------------------------

Количество треков: 11
Реальные значения DR: DR14

Частота:  2822400 Гц / Частота PCM: 352800 Гц
Каналов:  5
Разрядность:   1
Битрейт:  14112 кбит/с
Кодек:   DST64
================================================================================

--------------------------------------------------------------------------------
Анализ:   Aros  / Train Song
--------------------------------------------------------------------------------

DR         Пики         RMS           Продолжительность трека
--------------------------------------------------------------------------------
DR14      -4.20 дБ   -21.44 дБ      7:17 01-Zimbabwe
DR13      -9.48 дБ   -24.13 дБ      5:41 02-Road Song
DR12      -4.54 дБ   -20.13 дБ      4:59 03-Four'n a Half
DR14      -4.32 дБ   -20.94 дБ      4:04 04-Tango
DR12      -8.24 дБ   -24.01 дБ      6:53 05-Ostinato
DR13      -5.99 дБ   -20.72 дБ      5:09 06-Train Song
DR14      -6.75 дБ   -23.87 дБ      9:14 07-Fugatisme
DR11     -12.77 дБ   -26.66 дБ      1:21 08-One for Charlie
DR15      -7.28 дБ   -24.74 дБ      7:05 09-30
DR14      -9.62 дБ   -26.56 дБ      5:35 10-Song of the Heart
DR15      -4.79 дБ   -22.69 дБ      8:55 11-Rocket Song
--------------------------------------------------------------------------------

Количество треков: 11
Реальные значения DR: DR13

Частота:  2822400 Гц / Частота PCM: 352800 Гц
Каналов:  2
Разрядность:   1
Битрейт:  5645 кбит/с
Кодек:   DST64
================================================================================
No seeders - write personal message to M0p94ok. Any questions - support@pro-jazz.com.
Нет сидеров - пишите в личку M0p94ok. Есть вопросы - support@pro-jazz.com
22:31
88
Нет комментариев. Ваш будет первым!