Поиск

2016 Jenna Mammina - Close Your Eyes {Blue Coast} [24-192]

2016 Jenna Mammina - Close Your Eyes {Blue Coast} [24-192]
Стили:
Носитель:
WEB
Формат:
PCM
Тип рипа:
tracks
Контейнер:
FLAC (*.flac)
Количество каналов:
2.0
Разрядность/ЧД:
24/192
Битрейт аудио:
lossless
Время звучания:
00:43:55
Наличие сканов:
только обложка

Треклист:

01 - Dirty Work 04:34
02 - Lotus Blossom 03:39
03 - You Can Close Your Eyes 04:22
04 - Watching The Detectives 05:00
05 - Wicked Game 04:17
06 - Running to Stand Still 04:41
07 - Pictures and Paintings 04:22
08 - I Hope That I Don't Fall In Love With You 05:38
09 - Don't Let Me Be Lonely Tonight 02:41
10 - When I'm Called Home 04:41

Состав:
  • Jenna Mammina – vocals
  • Matt Rollings, John R. Burr – piano
  • Matt Rollings – organ
  • Paul McCandless – soprano saxophone, English horn
  • Rob Burger – accordion
  • Rolf Sturm, André Bush – guitar
  • Derek Jones, James Genus – bass
  • John Mader – drums
Лог проверки качества
foobar2000 1.5.2 / Dynamic Range Meter 1.1.1
log date: 2020-03-02 11:49:47
--------------------------------------------------------------------------------
Analyzed: Jenna Mammina / Close Your Eyes
--------------------------------------------------------------------------------
DR         Peak         RMS     Duration Track
--------------------------------------------------------------------------------
DR14      -1.06 dB   -18.98 dB      4:34 01-Dirty Work
DR13      -2.79 dB   -19.74 dB      3:40 02-Lotus Blossom
DR14      -0.62 dB   -21.91 dB      4:22 03-You Can Close Your Eyes
DR14      -2.18 dB   -20.19 dB      5:01 04-Watching The Detectives
DR16      -2.56 dB   -23.95 dB      4:17 05-Wicked Game
DR14      -3.54 dB   -20.83 dB      4:41 06-Running To Stand Still
DR13      -1.75 dB   -20.48 dB      4:23 07-Pictures and Paintings
DR15      -4.57 dB   -24.48 dB      5:38 08-I Hope That I Don't Fall In Love With You
DR12      -6.02 dB   -22.05 dB      2:42 09-Don't Let Me Be Lonely Tonight
DR15      -4.51 dB   -25.28 dB      4:42 10-When I'm Called Home
--------------------------------------------------------------------------------
Number of tracks:  10
Official DR value: DR14
Samplerate:        192000 Hz
Channels:          2
Bits per sample:   24
Bitrate:           6438 kbps
Codec:             FLAC
================================================================================
По всем вопросам пишите личное сообщение пользователю M0p94ok.
11:52
203
Нет комментариев. Ваш будет первым!