Поиск

1969 The Don Rendell - Ian Carr Quintet - Change Is {Decca, UMO} [24-96]

1969 The Don Rendell - Ian Carr Quintet - Change Is {Decca, UMO} [24-96]
Стили:
Дата записи диска:
20 марта - 16 апреля 1969
Место записи:
London, UK
Издатель (лейбл):
Носитель:
WEB
Формат:
PCM
Тип рипа:
tracks
Контейнер:
FLAC (*.flac)
Количество каналов:
2.0
Разрядность/ЧД:
24/96
Битрейт аудио:
lossless
Время звучания:
00:46:57
Наличие сканов:
только обложка

01 - Elastic Dream 05:56
02 - One Green Eye 02:57
03 - Boy, Dog And Carrot 13:47
04 - Cold Mountain 09:51
05 - Black Hair 05:20
06 - Mirage 08:57

Состав:
  • Bass – Dave Green, Jeff Clyne (tracks: 1)
  • Drums – Trevor Tomkins
  • Engineer – Adrian Kerridge, Michael Weighell*
  • Piano – Mike Pyne* (tracks: 2)
  • Piano, Harpsichord – Michael Garrick
  • Sleeve Notes – Charles Fox (3)
  • Tenor Saxophone, Clarinet – Stan Robinson (tracks: 1, 2)
  • Tenor Saxophone, Soprano Saxophone, Flute – Don Rendell
  • Trumpet, Flugelhorn – Ian Carr
Лог проверки качества
foobar2000 1.3.7 / Dynamic Range Meter 1.1.1
log date: 2018-12-11 13:12:16
--------------------------------------------------------------------------------
Analyzed: The Don Rendell / Ian Carr Quintet / Change Is
--------------------------------------------------------------------------------
DR         Peak         RMS     Duration Track
--------------------------------------------------------------------------------
DR12      -2.35 dB   -19.49 dB      5:55 01-Elastic Dream
DR10      -1.18 dB   -15.92 dB      2:57 02-One Green Eye
DR11      -0.40 dB   -16.10 dB     13:52 03-Boy, Dog And Carrot
DR10      -0.40 dB   -15.23 dB      9:55 04-Cold Mountain
DR10      -1.14 dB   -16.05 dB      5:25 05-Black Hair
DR10      -1.13 dB   -15.03 dB      8:55 06-Mirage
--------------------------------------------------------------------------------
Number of tracks:  6
Official DR value: DR11
Samplerate:        96000 Hz
Channels:          2
Bits per sample:   24
Bitrate:           3067 kbps
Codec:             FLAC
================================================================================
Приватный:
Нет (DHT включён)
Размер:
1004.79 Мб (1,053,602,123 байт) » файлов: 12
Участники:
4 раздают, 0 качают (4 участников всего)
Внешние участники:
1 раздают, 0 качают (1 участников всего) [ Обновить ]
14:10
488
Нет комментариев. Ваш будет первым!