Поиск

1956 James Moody - Flute 'n the Blues (2021) {Music Manager} [24-48]

1956 James Moody - Flute 'n the Blues (2021) {Music Manager} [24-48]
Дата издания диска:
ноябрь 1956
Издатель (лейбл):
Носитель:
WEB
Формат:
PCM
Тип рипа:
tracks
Контейнер:
FLAC (*.flac)
Количество каналов:
2.0
Разрядность/ЧД:
24/48
Битрейт аудио:
lossless
Время звучания:
00:35:55
Наличие сканов:
только обложка

Треклист:

01 - Flute 'n the Blues 04:11
02 - Birdland Story 02:34
03 - It Could Happen to You 02:46
04 - I Cover the Waterfront 02:46
05 - Body and Soul 04:26
06 - Breaking the Blues 03:24
07 - Parker's Mood 03:25
08 - Easy Living 03:56
09 - Boo's Tune 03:46
10 - Richard's Blues 04:41

Состав:
  • James Moody — tenor saxophone, alto saxophone, flute
  • Johnny Coles — trumpet — featured on track 8
  • William Shepherd — trombone — featured on track 3
  • Pee Wee Moore — baritone saxophone
  • Jimmy Boyd — piano, peck horn
  • John Latham — bass
  • Clarence Johnston — drums
  • Eddie Jefferson — vocals (tracks 2, 4 & 7)
Лог проверки качества
foobar2000 1.4.3 / Dynamic Range Meter 1.1.1
log date: 2021-07-25 17:04:54
--------------------------------------------------------------------------------
Analyzed: James Moody / Flute 'n the Blues
--------------------------------------------------------------------------------
DR         Peak         RMS     Duration Track
--------------------------------------------------------------------------------
DR12      -0.03 dB   -14.70 dB      4:12 01-Flute 'n the Blues
DR13      -0.04 dB   -15.31 dB      2:34 02-Birdland Story
DR13       0.00 dB   -15.00 dB      2:46 03-It Could Happen to You
DR13      -0.07 dB   -15.09 dB      2:46 04-I Cover the Waterfront
DR14      -0.07 dB   -16.67 dB      4:27 05-Body and Soul
DR15      -0.24 dB   -18.21 dB      3:24 06-Breaking the Blues
DR12      -0.23 dB   -16.26 dB      3:26 07-Parker's Mood
DR15       0.00 dB   -17.43 dB      3:57 08-Easy Living
DR13      -0.05 dB   -14.85 dB      3:46 09-Boo's Tune
DR15      -0.06 dB   -16.72 dB      4:42 10-Richard's Blues
--------------------------------------------------------------------------------
Number of tracks:  10
Official DR value: DR13
Samplerate:        48000 Hz
Channels:          2
Bits per sample:   24
Bitrate:           1061 kbps
Codec:             FLAC
================================================================================
По всем вопросам пишите личное сообщение пользователю M0p94ok.
10:42
337
Нет комментариев. Ваш будет первым!