Вы используете незарегистрированную версию компонента "Вкладки"!

Поиск

2016 Gabrielle Chiararo - Night and Day: Live Cocktail and Coffee Bar Music Selection {Smoothnotes} [24-96]

2016 Gabrielle Chiararo - Night and Day: Live Cocktail and Coffee Bar Music Selection {Smoothnotes} [24-96]
Битрейт аудио:
lossless
Доп. инфо:

Формат записи/Источник записи: [TR24][OF]
Наличие водяных знаков: Нет
Год издания/переиздания диска: 2016
Издатель (лейбл): SMOOTHNOTES
Продолжительность: 2016.04.30

Контейнер: FLAC (*.flac)
Тип рипа: tracks
Разрядность: 24/96
Формат: PCM
Количество каналов: 2.0

Источник (релизер): mora.jp

Лог проверки качества
foobar2000 1.5.5 beta 3 / Dynamic Range Meter 1.1.1
log date: 2020-08-13 09:48:16

--------------------------------------------------------------------------------
Analyzed: Gabrielle Chiararo / Night and Day: Live Cocktail and Coffee Bar Music Selection
--------------------------------------------------------------------------------

DR         Peak         RMS     Duration Track
--------------------------------------------------------------------------------
DR10      -0.10 dB   -11.63 dB      3:20 01-Night and Day
DR11       0.00 dB   -12.84 dB      2:26 02-Fly Me to the Moon
DR12      -0.10 dB   -13.53 dB      2:44 03-So Nice
DR17       0.00 dB   -18.20 dB      3:03 04-Don't Know Why
DR13       0.00 dB   -14.38 dB      4:08 05-It's Probably Me
DR13      -0.10 dB   -15.68 dB      4:37 06-Tears in Heaven
DR12      -0.10 dB   -13.69 dB      5:00 07-Smooth Operator
DR13      -0.10 dB   -15.69 dB      2:49 08-Walk On By
DR13      -2.48 dB   -17.92 dB      5:24 09-Corcovado
DR11      -0.10 dB   -12.64 dB      4:05 10-Parole Parole
DR12       0.00 dB   -13.76 dB      3:03 11-Fragile
DR13      -0.10 dB   -14.86 dB      4:24 12-Roxanne
DR12       0.00 dB   -14.57 dB      3:34 13-Estate
DR12       0.00 dB   -15.45 dB      3:35 14-Feuilles Mortes
DR11      -0.10 dB   -13.29 dB      4:20 15-Pensiero Stupendo
DR13      -0.10 dB   -14.67 dB      3:53 16-La Mer
DR16       0.00 dB   -17.31 dB      3:22 17-A Me Me Piace 'o Blues
DR14       0.00 dB   -16.17 dB      3:54 18-Ain't No Sunshine
DR11      -0.10 dB   -12.14 dB      2:23 19-L-O-V-E
DR13       0.00 dB   -15.46 dB      3:12 20-All of Me
DR14      -0.34 dB   -17.95 dB      2:47 21-Cheek to Cheek
DR11      -0.10 dB   -13.71 dB      4:27 22-Stormy Weather
DR14      -1.02 dB   -18.28 dB      4:55 23-Calling You
--------------------------------------------------------------------------------

Number of tracks:  23
Official DR value: DR13

Samplerate:        96000 Hz
Channels:          2
Bits per sample:   24
Bitrate:           4616 kbps
Codec:             FLAC
================================================================================
Any questions - support@pro-jazz.com. Есть вопросы - support@pro-jazz.com
23:51
325
Нет комментариев. Ваш будет первым!