Вы используете незарегистрированную версию компонента "Вкладки"!

Поиск

2019 Allison Miller’s Boom Tic Boom - Glitter Wolf {The Royal Potato Family} [24-96]

2019 Allison Miller’s Boom Tic Boom - Glitter Wolf {The Royal Potato Family} [24-96]
Стили:
Место записи:
Fantasy Studios, Berkeley, CA; Redstar Studios, Los Angeles, CA
Дата издания диска:
1 февраля 2019
Номер по каталогу:
1900
Носитель:
WEB
Формат:
PCM
Тип рипа:
tracks+.cue
Контейнер:
FLAC (*.flac)
Количество каналов:
2.0
Разрядность/ЧД:
24/96
Битрейт аудио:
lossless
Время звучания:
00:59:11
Наличие сканов:
web
Страна-производитель диска (релиза):
USA
Релизёр (источник):
M0p94ok
Лог проверки качества
foobar2000 1.5.5 / Dynamic Range Meter 1.1.1
log date: 2020-09-19 20:18:36

--------------------------------------------------------------------------------
Analyzed: Allison Miller’s Boom Tic Boom / Glitter Wolf
--------------------------------------------------------------------------------

DR         Peak         RMS     Duration Track
--------------------------------------------------------------------------------
DR6       -0.50 dB    -8.37 dB      6:08 01-Congratulations and Condolences
DR9       -0.50 dB   -11.74 dB      7:54 02-The Ride
DR9       -0.50 dB   -12.08 dB      7:24 03-Malaga
DR10      -0.50 dB   -12.65 dB      5:29 04-Zev - The Phoenix
DR8       -0.50 dB   -11.87 dB      5:49 05-Daughter and Sun
DR9       -0.50 dB   -11.92 dB      7:09 06-White Wolf
DR9       -0.50 dB   -11.31 dB      6:40 07-Welcome Hotel
DR10      -0.50 dB   -13.96 dB      2:40 08-Vine and Vein
DR8       -0.50 dB   -10.46 dB      6:11 09-Glitter Wolf
DR12      -0.50 dB   -16.28 dB      3:49 10-Valley of the Giants
--------------------------------------------------------------------------------

Number of tracks:  10
Official DR value: DR9

Samplerate:        96000 Hz
Channels:          2
Bits per sample:   24
Bitrate:           2787 kbps
Codec:             FLAC
================================================================================
Any questions - support@pro-jazz.com. Есть вопросы - support@pro-jazz.com
20:28
234
Нет комментариев. Ваш будет первым!