Вы используете незарегистрированную версию компонента "Вкладки"!

Поиск

2018 Steve Kuhn Trio - To And From The Heart {Sunnyside} [24-96]

2018 Steve Kuhn Trio - To And From The Heart {Sunnyside} [24-96]
Стили:
Издатель (лейбл):
Битрейт аудио:
lossless
Доп. инфо:

Формат записи/Источник записи: [TR24][OF]
Наличие водяных знаков: Нет
Год издания/переиздания диска: 2018
Продолжительность: 00:46:40
Наличие сканов в содержимом раздачи: Только обложка альбома

Контейнер: FLAC (*.flac)
Тип рипа: tracks
Разрядность: 24/96
Формат: PCM
Количество каналов: 2.0

Источник (релизер): https://www.hdtracks.com/#/album/5e3b931f00741c34a47dc364

Лог проверки качества
foobar2000 1.3.7 / Dynamic Range Meter 1.1.1
log date: 2019-06-05 11:50:52

--------------------------------------------------------------------------------
Analyzed: Steve Kuhn Trio / To and from the Heart
--------------------------------------------------------------------------------

DR         Peak         RMS     Duration Track
--------------------------------------------------------------------------------
DR11      -0.50 dB   -14.57 dB      7:49 01-Thinking Out Loud
DR11      -0.50 dB   -14.14 dB      6:16 02-Pure Imagination
DR12      -0.50 dB   -15.40 dB      6:00 03-Away
DR14      -1.35 dB   -19.75 dB      4:38 04-Never Let Me Go
DR12      -0.50 dB   -15.28 dB      5:29 05-Into the New World
DR9       -0.50 dB   -13.76 dB     16:29 06-Trance Oceans In the Sky
--------------------------------------------------------------------------------

Number of tracks:  6
Official DR value: DR11

Samplerate:        96000 Hz
Channels:          2
Bits per sample:   24
Bitrate:           2749 kbps
Codec:             FLAC
================================================================================
Any questions - support@pro-jazz.com. Есть вопросы - support@pro-jazz.com
18:54
260
Нет комментариев. Ваш будет первым!