Поиск

2016 Catherine Russell - Harlem on My Mind {Jazz Village JV579004} [CD]

2016 Catherine Russell - Harlem on My Mind {Jazz Village JV579004} [CD]
Битрейт аудио:
lossless
Треклист:

01. Harlem on My Mind (4:17)
02. I Can't Believe That You're in Love with Me (4:12)
03. Swing! Brother, Swing! (2:34)
04. The Very Thought of You (5:07)
05. You've Got the Right Key But the Wrong Keyhole (3:55)
06. Don't Take Your Love from Me (4:52)
07. Blue Turning Grey over You (3:12)
08. You're My Thrill (4:44)
09. I Want a Man (3:56)
10. When Lights Are Low (4:52)
11. Talk to Me, Talk to Me (3:21)
12. Let Me Be the First to Know (5:04)

Жанр: Vocal Jazz, Swing, Blues
Носитель: CD
Страна-производитель диска (релиза): США
Год издания: 2016
Издатель (лейбл): Jazz Village
Номер по каталогу: JV579004
Аудиокодек: FLAC (*.flac)
Тип рипа: tracks+.cue
Продолжительность: 00:50:06
Источник (релизер): catfish27
Наличие сканов в содержимом раздачи: сетевые

Лог создания рипа
X Lossless Decoder version 20170729 (150.3)

XLD extraction logfile from 2018-09-27 23:10:45 -0700

Catherine Russell / Harlem on My Mind

Used drive : TSSTcorp BDDVDW SE-506BB (revision TS00)
Media type : Pressed CD

Ripper mode             : XLD Secure Ripper
Disable audio cache     : OK for the drive with a cache less than 1375KiB
Make use of C2 pointers : NO
Read offset correction  : 6
Max retry count         : 100
Gap status              : Analyzed, Appended (except HTOA)

TOC of the extracted CD
     Track |   Start  |  Length  | Start sector | End sector
    ---------------------------------------------------------
        1  | 00:00:00 | 04:17:07 |         0    |    19281
        2  | 04:17:07 | 04:11:58 |     19282    |    38164
        3  | 08:28:65 | 02:34:33 |     38165    |    49747
        4  | 11:03:23 | 05:06:50 |     49748    |    72747
        5  | 16:09:73 | 03:55:01 |     72748    |    90373
        6  | 20:04:74 | 04:52:22 |     90374    |   112295
        7  | 24:57:21 | 03:12:07 |    112296    |   126702
        8  | 28:09:28 | 04:43:46 |    126703    |   147973
        9  | 32:52:74 | 03:56:05 |    147974    |   165678
       10  | 36:49:04 | 04:51:73 |    165679    |   187576
       11  | 41:41:02 | 03:21:33 |    187577    |   202684
       12  | 45:02:35 | 05:04:13 |    202685    |   225497

AccurateRip Summary (DiscID: 0015f409-00cd9631-9d0bbe0c)
    Track 01 : OK (v2, confidence 18/18)
    Track 02 : OK (v2, confidence 18/18)
    Track 03 : OK (v2, confidence 18/18)
    Track 04 : OK (v2, confidence 18/18)
    Track 05 : OK (v2, confidence 18/18)
    Track 06 : OK (v2, confidence 17/17)
    Track 07 : OK (v2, confidence 17/17)
    Track 08 : OK (v2, confidence 17/17)
    Track 09 : OK (v2, confidence 17/17)
    Track 10 : OK (v2, confidence 17/17)
    Track 11 : OK (v2, confidence 17/17)
    Track 12 : OK (v2, confidence 17/17)
        ->All tracks accurately ripped.

All Tracks
    Album gain               : -8.04 dB
    Peak                     : 0.979523
    Statistics
        Read error                           : 0
        Jitter error (maybe fixed)           : 1
        Retry sector count                   : 0
        Damaged sector count                 : 0

Track 01
    Filename : /Volumes/Hollywood and Vine/Rips/Catherine Russell - Harlem on My Mind (2016) [FLAC]/01 Harlem on My Mind.flac
    Pre-gap length : 00:02:00

    Track gain               : -7.65 dB
    Peak                     : 0.966156
    CRC32 hash (test run)    : C22989C2
    CRC32 hash               : C22989C2
    CRC32 hash (skip zero)   : 8BCD751F
    AccurateRip v1 signature : 6BBD8566
    AccurateRip v2 signature : 38EF7887
        ->Accurately ripped (v2, confidence 18/18)
    Statistics
        Read error                           : 0
        Jitter error (maybe fixed)           : 0
        Retry sector count                   : 0
        Damaged sector count                 : 0

Track 02
    Filename : /Volumes/Hollywood and Vine/Rips/Catherine Russell - Harlem on My Mind (2016) [FLAC]/02 I Can't Believe That You're in Love With Me.flac

    Track gain               : -7.96 dB
    Peak                     : 0.979523
    CRC32 hash (test run)    : 5639E0FD
    CRC32 hash               : 5639E0FD
    CRC32 hash (skip zero)   : BC7FAFEC
    AccurateRip v1 signature : 37EB9B8F
    AccurateRip v2 signature : 5D1763A4
        ->Accurately ripped (v2, confidence 18/18)
    Statistics
        Read error                           : 0
        Jitter error (maybe fixed)           : 0
        Retry sector count                   : 0
        Damaged sector count                 : 0

Track 03
    Filename : /Volumes/Hollywood and Vine/Rips/Catherine Russell - Harlem on My Mind (2016) [FLAC]/03 Swing! Brother, Swing!.flac

    Track gain               : -9.23 dB
    Peak                     : 0.971039
    CRC32 hash (test run)    : 2C125C96
    CRC32 hash               : 2C125C96
    CRC32 hash (skip zero)   : A6805C80
    AccurateRip v1 signature : 21FF5424
    AccurateRip v2 signature : B52E9E74
        ->Accurately ripped (v2, confidence 18/18)
    Statistics
        Read error                           : 0
        Jitter error (maybe fixed)           : 0
        Retry sector count                   : 0
        Damaged sector count                 : 0

Track 04
    Filename : /Volumes/Hollywood and Vine/Rips/Catherine Russell - Harlem on My Mind (2016) [FLAC]/04 The Very Thought of You.flac

    Track gain               : -5.99 dB
    Peak                     : 0.959930
    CRC32 hash (test run)    : A682CC5E
    CRC32 hash               : A682CC5E
    CRC32 hash (skip zero)   : 751D8DA1
    AccurateRip v1 signature : A3C3BB0F
    AccurateRip v2 signature : FF89B6B6
        ->Accurately ripped (v2, confidence 18/18)
    Statistics
        Read error                           : 0
        Jitter error (maybe fixed)           : 0
        Retry sector count                   : 0
        Damaged sector count                 : 0

Track 05
    Filename : /Volumes/Hollywood and Vine/Rips/Catherine Russell - Harlem on My Mind (2016) [FLAC]/05 You've Got the Right Key But the Wrong Keyhole.flac

    Track gain               : -8.30 dB
    Peak                     : 0.962799
    CRC32 hash (test run)    : DF79CF35
    CRC32 hash               : DF79CF35
    CRC32 hash (skip zero)   : ACA16845
    AccurateRip v1 signature : 9596B09E
    AccurateRip v2 signature : 65383202
        ->Accurately ripped (v2, confidence 18/18)
    Statistics
        Read error                           : 0
        Jitter error (maybe fixed)           : 0
        Retry sector count                   : 0
        Damaged sector count                 : 0

Track 06
    Filename : /Volumes/Hollywood and Vine/Rips/Catherine Russell - Harlem on My Mind (2016) [FLAC]/06 Don't Take Your Love From Me.flac

    Track gain               : -7.74 dB
    Peak                     : 0.959320
    CRC32 hash (test run)    : 7EE004F2
    CRC32 hash               : 7EE004F2
    CRC32 hash (skip zero)   : A80FB9A6
    AccurateRip v1 signature : 85FF8C20
    AccurateRip v2 signature : 164C62D8
        ->Accurately ripped (v2, confidence 17/17)
    Statistics
        Read error                           : 0
        Jitter error (maybe fixed)           : 0
        Retry sector count                   : 0
        Damaged sector count                 : 0

Track 07
    Filename : /Volumes/Hollywood and Vine/Rips/Catherine Russell - Harlem on My Mind (2016) [FLAC]/07 Blue Turning Grey Over You.flac

    Track gain               : -6.18 dB
    Peak                     : 0.958435
    CRC32 hash (test run)    : F0BD3698
    CRC32 hash               : F0BD3698
    CRC32 hash (skip zero)   : 809350D4
    AccurateRip v1 signature : 7852B5FD
    AccurateRip v2 signature : 0D8C9CB0
        ->Accurately ripped (v2, confidence 17/17)
    Statistics
        Read error                           : 0
        Jitter error (maybe fixed)           : 0
        Retry sector count                   : 0
        Damaged sector count                 : 0

Track 08
    Filename : /Volumes/Hollywood and Vine/Rips/Catherine Russell - Harlem on My Mind (2016) [FLAC]/08 You're My Thrill.flac

    Track gain               : -6.83 dB
    Peak                     : 0.961945
    CRC32 hash (test run)    : B4E217E4
    CRC32 hash               : B4E217E4
    CRC32 hash (skip zero)   : 1F83BAF2
    AccurateRip v1 signature : 8F921367
    AccurateRip v2 signature : F89DB800
        ->Accurately ripped (v2, confidence 17/17)
    Statistics
        Read error                           : 0
        Jitter error (maybe fixed)           : 0
        Retry sector count                   : 0
        Damaged sector count                 : 0

Track 09
    Filename : /Volumes/Hollywood and Vine/Rips/Catherine Russell - Harlem on My Mind (2016) [FLAC]/09 I Want a Man.flac

    Track gain               : -8.84 dB
    Peak                     : 0.960480
    CRC32 hash (test run)    : 9F2F4F09
    CRC32 hash               : 9F2F4F09
    CRC32 hash (skip zero)   : 0E785BC0
    AccurateRip v1 signature : 4A57A5C3
    AccurateRip v2 signature : 4C39567C
        ->Accurately ripped (v2, confidence 17/17)
    Statistics
        Read error                           : 0
        Jitter error (maybe fixed)           : 0
        Retry sector count                   : 0
        Damaged sector count                 : 0

Track 10
    Filename : /Volumes/Hollywood and Vine/Rips/Catherine Russell - Harlem on My Mind (2016) [FLAC]/10 When Lights Are Low.flac

    Track gain               : -8.12 dB
    Peak                     : 0.977264
    CRC32 hash (test run)    : 0ABBBF9E
    CRC32 hash               : 0ABBBF9E
    CRC32 hash (skip zero)   : B1D9A851
    AccurateRip v1 signature : 2C4A1863
    AccurateRip v2 signature : 2DD23792
        ->Accurately ripped (v2, confidence 17/17)
    Statistics
        Read error                           : 0
        Jitter error (maybe fixed)           : 0
        Retry sector count                   : 0
        Damaged sector count                 : 0

Track 11
    Filename : /Volumes/Hollywood and Vine/Rips/Catherine Russell - Harlem on My Mind (2016) [FLAC]/11 Talk to Me.flac

    Track gain               : -8.27 dB
    Peak                     : 0.960083
    CRC32 hash (test run)    : 389D4A7B
    CRC32 hash               : 389D4A7B
    CRC32 hash (skip zero)   : 7CE1D3D0
    AccurateRip v1 signature : 1E7CEE87
    AccurateRip v2 signature : 94AD63F4
        ->Accurately ripped (v2, confidence 17/17)
    Statistics
        Read error                           : 0
        Jitter error (maybe fixed)           : 0
        Retry sector count                   : 0
        Damaged sector count                 : 0

Track 12
    Filename : /Volumes/Hollywood and Vine/Rips/Catherine Russell - Harlem on My Mind (2016) [FLAC]/12 Let Me Be the First to Know.flac

    Track gain               : -9.28 dB
    Peak                     : 0.971039
    CRC32 hash (test run)    : A5B25ECE
    CRC32 hash               : A5B25ECE
    CRC32 hash (skip zero)   : F2823D69
    AccurateRip v1 signature : 2BC65B43
    AccurateRip v2 signature : C7486D81
        ->Accurately ripped (v2, confidence 17/17)
    Statistics
        Read error                           : 0
        Jitter error (maybe fixed)           : 1
        Retry sector count                   : 0
        Damaged sector count                 : 0

No errors occurred

End of status report

-----BEGIN XLD SIGNATURE-----
9HiH33hPCVV1L9uR7D1m4her_FXn9zUNEz4pfBn.wIaipgmHtB1DGPyXiSGhouwCpF8KvDCycqCzQoVAfVSVxgoYIWlDlu5MydSDYTO
-----END XLD SIGNATURE-----
Содержание индексной карты (.CUE)
TITLE "Harlem on My Mind"
PERFORMER "Catherine Russell"
REM GENRE "Jazz"
REM DATE "2016"
REM DISCID 9D0BBE0C
REM REPLAYGAIN_ALBUM_GAIN -8.04 dB
REM REPLAYGAIN_ALBUM_PEAK 0.979523
FILE "01 - Harlem on My Mind.flac" WAVE
  TRACK 01 AUDIO
    TITLE "Harlem on My Mind"
    ISRC USWR41600401
    REM REPLAYGAIN_TRACK_GAIN -7.65 dB
    REM REPLAYGAIN_TRACK_PEAK 0.966156
    INDEX 01 00:00:00
FILE "02 - I Can't Believe That You're in Love with Me.flac" WAVE
  TRACK 02 AUDIO
    TITLE "I Can't Believe That You're in Love with Me"
    ISRC USWR41600402
    REM REPLAYGAIN_TRACK_GAIN -7.96 dB
    REM REPLAYGAIN_TRACK_PEAK 0.979523
    INDEX 01 00:00:00
FILE "03 - Swing! Brother, Swing!.flac" WAVE
  TRACK 03 AUDIO
    TITLE "Swing! Brother, Swing!"
    ISRC USWR41600403
    REM REPLAYGAIN_TRACK_GAIN -9.23 dB
    REM REPLAYGAIN_TRACK_PEAK 0.971039
    INDEX 01 00:00:00
FILE "04 - The Very Thought of You.flac" WAVE
  TRACK 04 AUDIO
    TITLE "The Very Thought of You"
    ISRC USWR41600404
    REM REPLAYGAIN_TRACK_GAIN -5.99 dB
    REM REPLAYGAIN_TRACK_PEAK 0.959930
    INDEX 01 00:00:00
FILE "05 - You've Got the Right Key But the Wrong Keyhole.flac" WAVE
  TRACK 05 AUDIO
    TITLE "You've Got the Right Key But the Wrong Keyhole"
    ISRC USWR41600405
    REM REPLAYGAIN_TRACK_GAIN -8.30 dB
    REM REPLAYGAIN_TRACK_PEAK 0.962799
    INDEX 01 00:00:00
FILE "06 - Don't Take Your Love from Me.flac" WAVE
  TRACK 06 AUDIO
    TITLE "Don't Take Your Love from Me"
    ISRC USWR41600406
    REM REPLAYGAIN_TRACK_GAIN -7.74 dB
    REM REPLAYGAIN_TRACK_PEAK 0.959320
    INDEX 01 00:00:00
FILE "07 - Blue Turning Grey over You.flac" WAVE
  TRACK 07 AUDIO
    TITLE "Blue Turning Grey over You"
    ISRC USWR41600407
    REM REPLAYGAIN_TRACK_GAIN -6.18 dB
    REM REPLAYGAIN_TRACK_PEAK 0.958435
    INDEX 01 00:00:00
FILE "08 - You're My Thrill.flac" WAVE
  TRACK 08 AUDIO
    TITLE "You're My Thrill"
    ISRC USWR41600408
    REM REPLAYGAIN_TRACK_GAIN -6.83 dB
    REM REPLAYGAIN_TRACK_PEAK 0.961945
    INDEX 01 00:00:00
FILE "09 - I Want a Man.flac" WAVE
  TRACK 09 AUDIO
    TITLE "I Want a Man"
    ISRC USWR41600409
    REM REPLAYGAIN_TRACK_GAIN -8.84 dB
    REM REPLAYGAIN_TRACK_PEAK 0.960480
    INDEX 01 00:00:00
FILE "10 - When Lights Are Low.flac" WAVE
  TRACK 10 AUDIO
    TITLE "When Lights Are Low"
    ISRC USWR41600410
    REM REPLAYGAIN_TRACK_GAIN -8.12 dB
    REM REPLAYGAIN_TRACK_PEAK 0.977264
    INDEX 01 00:00:00
FILE "11 - Talk to Me, Talk to Me.flac" WAVE
  TRACK 11 AUDIO
    TITLE "Talk to Me, Talk to Me"
    ISRC USWR41600411
    REM REPLAYGAIN_TRACK_GAIN -8.27 dB
    REM REPLAYGAIN_TRACK_PEAK 0.960083
    INDEX 01 00:00:00
FILE "12 - Let Me Be the First to Know.flac" WAVE
  TRACK 12 AUDIO
    TITLE "Let Me Be the First to Know"
    ISRC USWR41600412
    REM REPLAYGAIN_TRACK_GAIN -9.28 dB
    REM REPLAYGAIN_TRACK_PEAK 0.971039
    INDEX 01 00:00:00
Лог проверки качества
[CUETools log; Date: 30.12.2018 4:15:48; Version: 2.1.6]
[CTDB TOCID: m8I9L_UAne0bcX4CroDvjA7Acy0-] found.
Track | CTDB Status
  1   | (34/34) Accurately ripped
  2   | (34/34) Accurately ripped
  3   | (34/34) Accurately ripped
  4   | (34/34) Accurately ripped
  5   | (34/34) Accurately ripped
  6   | (34/34) Accurately ripped
  7   | (34/34) Accurately ripped
  8   | (34/34) Accurately ripped
  9   | (34/34) Accurately ripped
 10   | (34/34) Accurately ripped
 11   | (34/34) Accurately ripped
 12   | (34/34) Accurately ripped
[AccurateRip ID: 0015f409-00cd9631-9d0bbe0c] found.
Track   [  CRC   |   V2   ] Status
 01     [6bbd8566|38ef7887] (00+18/18) Accurately ripped
 02     [37eb9b8f|5d1763a4] (00+18/18) Accurately ripped
 03     [21ff5424|b52e9e74] (00+18/18) Accurately ripped
 04     [a3c3bb0f|ff89b6b6] (00+18/18) Accurately ripped
 05     [9596b09e|65383202] (00+18/18) Accurately ripped
 06     [85ff8c20|164c62d8] (00+17/17) Accurately ripped
 07     [7852b5fd|0d8c9cb0] (00+17/17) Accurately ripped
 08     [8f921367|f89db800] (00+17/17) Accurately ripped
 09     [4a57a5c3|4c39567c] (00+17/17) Accurately ripped
 10     [2c4a1863|2dd23792] (00+17/17) Accurately ripped
 11     [1e7cee87|94ad63f4] (00+17/17) Accurately ripped
 12     [2bc65b43|c7486d81] (00+17/17) Accurately ripped

Track Peak [ CRC32  ] [W/O NULL]
 --   97,9 [3A0C963F] [49D237CC]
 01   96,6 [C22989C2] [8BCD751F]
 02   97,9 [5639E0FD] [BC7FAFEC]
 03   97,1 [2C125C96] [A6805C80]
 04   95,9 [A682CC5E] [751D8DA1]
 05   96,2 [DF79CF35] [ACA16845]
 06   95,9 [7EE004F2] [A80FB9A6]
 07   95,8 [F0BD3698] [809350D4]
 08   96,1 [B4E217E4] [1F83BAF2]
 09   96,0 [9F2F4F09] [0E785BC0]
 10   97,7 [0ABBBF9E] [B1D9A851]
 11   96,0 [389D4A7B] [7CE1D3D0]
 12   97,1 [A5B25ECE] [F2823D69]
Скачивание доступно после регистрации!!
Приватный:
Нет (DHT включён)
Размер:
275.17 Мб (288,540,794 байт) » файлов: 20
Участники:
0 раздают, 0 качают (0 участников всего)
Внешние участники:
--- [ Обновить ]
19:31
73
Нет комментариев. Ваш будет первым!