Поиск

2013 Chris Connor - Chris Connor Sings Lullabys for Lovers {Bethlehem BCP-1002} [CD]

2013 Chris Connor - Chris Connor Sings Lullabys for Lovers {Bethlehem BCP-1002} [CD]
Битрейт аудио:
lossless
Треклист:

01. Lush Life (Strayhorn) - 2:56
02. Out of This World (Mercer-Arlen) - 2:55
03. Cottage for Sale (Conley-Robinson) - 2:36
04. How Long? (Gershwin-Gershwin) - 2:33
05. Goodbye (Jenkins) - 2:34
06. Stella by Starlight (Young-Washington) - 2:28
07. Gone with the Wind (Wrubel-Magidson) - 2:20
08. He's Coming Home (De Forest) - 2:44

Recorded in New York on August 21, 1954.

Лог создания рипа
Exact Audio Copy V1.3 from 2. September 2016

EAC extraction logfile from 30. November 2018, 15:36

Chris Connor / Chris Connor Sings Lullabys for Lovers

Used drive  : hp PLDS DVDRW  DU8AESH   Adapter: 1  ID: 0

Read mode               : Secure
Utilize accurate stream : Yes
Defeat audio cache      : Yes
Make use of C2 pointers : No

Read offset correction                      : 6
Overread into Lead-In and Lead-Out          : No
Fill up missing offset samples with silence : Yes
Delete leading and trailing silent blocks   : No
Null samples used in CRC calculations       : Yes
Used interface                              : Native Win32 interface for Win NT & 2000
Gap handling                                : Appended to previous track

Used output format              : User Defined Encoder
Selected bitrate                : 1024 kBit/s
Quality                         : High
Add ID3 tag                     : No
Command line compressor         : C:\Program Files (x86)\Exact Audio Copy\Flac\flac.exe
Additional command line options : -8 -V -T "ARTIST=%artist%" -T "TITLE=%title%" -T "ALBUM=%albumtitle%" -T "DATE=%year%" -T "TRACKNUMBER=%tracknr%" -T "GENRE=%genre%" -T "PERFORMER=%albuminterpret%" -T "COMPOSER=%composer%" %haslyrics%--tag-from-file=LYRICS="%lyricsfile%"%haslyrics% -T "ALBUMARTIST=%albumartist%" -T "DISCNUMBER=%cdnumber%" -T "TOTALDISCS=%totalcds%" -T "TOTALTRACKS=%numtracks%" -T "COMMENT=%comment%" %source% -o %dest%

TOC of the extracted CD

     Track |   Start  |  Length  | Start sector | End sector
    ---------------------------------------------------------
        1  |  0:00.00 |  2:55.58 |         0    |    13182
        2  |  2:55.58 |  2:54.52 |     13183    |    26284
        3  |  5:50.35 |  2:35.74 |     26285    |    37983
        4  |  8:26.34 |  2:33.12 |     37984    |    49470
        5  | 10:59.46 |  2:34.08 |     49471    |    61028
        6  | 13:33.54 |  2:27.71 |     61029    |    72124
        7  | 16:01.50 |  2:20.12 |     72125    |    82636
        8  | 18:21.62 |  2:44.30 |     82637    |    94966

Track  1

     Filename D:\Dropbox\EAC\Chris Connor - Chris Connor Sings Lullabys for Lovers (1954) [FLAC]\01. Lush Life.wav

     Pre-gap length  0:00:02.00

     Peak level 79.1 %
     Extraction speed 2.5 X
     Track quality 100.0 %
     Test CRC 6C61C99F
     Copy CRC 6C61C99F
     Accurately ripped (confidence 4)  [D7899E48]  (AR v2)
     Copy OK

Track  2

     Filename D:\Dropbox\EAC\Chris Connor - Chris Connor Sings Lullabys for Lovers (1954) [FLAC]\02. Out of This World.wav

     Peak level 84.9 %
     Extraction speed 2.7 X
     Track quality 100.0 %
     Test CRC A4AB130F
     Copy CRC A4AB130F
     Accurately ripped (confidence 4)  [FF3C0429]  (AR v2)
     Copy OK

Track  3

     Filename D:\Dropbox\EAC\Chris Connor - Chris Connor Sings Lullabys for Lovers (1954) [FLAC]\03. Cottage for Sale.wav

     Peak level 75.0 %
     Extraction speed 2.9 X
     Track quality 100.0 %
     Test CRC 832B111A
     Copy CRC 832B111A
     Accurately ripped (confidence 4)  [8C057470]  (AR v2)
     Copy OK

Track  4

     Filename D:\Dropbox\EAC\Chris Connor - Chris Connor Sings Lullabys for Lovers (1954) [FLAC]\04. How Long Has This Been Going On.wav

     Peak level 74.0 %
     Extraction speed 3.0 X
     Track quality 100.0 %
     Test CRC 982BE707
     Copy CRC 982BE707
     Accurately ripped (confidence 4)  [82A2E252]  (AR v2)
     Copy OK

Track  5

     Filename D:\Dropbox\EAC\Chris Connor - Chris Connor Sings Lullabys for Lovers (1954) [FLAC]\05. Goodbye.wav

     Peak level 67.7 %
     Extraction speed 3.2 X
     Track quality 100.0 %
     Test CRC B37DBCF5
     Copy CRC B37DBCF5
     Accurately ripped (confidence 4)  [52AE5FCA]  (AR v2)
     Copy OK

Track  6

     Filename D:\Dropbox\EAC\Chris Connor - Chris Connor Sings Lullabys for Lovers (1954) [FLAC]\06. Stella by Starlight.wav

     Peak level 61.9 %
     Extraction speed 3.3 X
     Track quality 100.0 %
     Test CRC 66CEE574
     Copy CRC 66CEE574
     Accurately ripped (confidence 4)  [BBE6E6FF]  (AR v2)
     Copy OK

Track  7

     Filename D:\Dropbox\EAC\Chris Connor - Chris Connor Sings Lullabys for Lovers (1954) [FLAC]\07. Gone With the Wind.wav

     Peak level 75.7 %
     Extraction speed 3.4 X
     Track quality 100.0 %
     Test CRC DDAD3F33
     Copy CRC DDAD3F33
     Accurately ripped (confidence 4)  [B0C165F9]  (AR v2)
     Copy OK

Track  8

     Filename D:\Dropbox\EAC\Chris Connor - Chris Connor Sings Lullabys for Lovers (1954) [FLAC]\08. He's Coming Home.wav

     Peak level 80.3 %
     Extraction speed 3.6 X
     Track quality 100.0 %
     Test CRC 5D0865C0
     Copy CRC 5D0865C0
     Accurately ripped (confidence 4)  [200AE450]  (AR v2)
     Copy OK

All tracks accurately ripped

No errors occurred

End of status report

---- CUETools DB Plugin V2.1.6

[CTDB TOCID: RNFFUBO0x_CXLoieTumEgWS4xfY-] disk not present in database
Submit result: RNFFUBO0x_CXLoieTumEgWS4xfY- has been uploaded

==== Log checksum AE743CE48BD154DA973B942B906B635F872205CE7425270B3BD4EDBE1232D494 ====
Содержание индексной карты (.CUE)
REM GENRE Jazz
REM DATE 1954
REM DISCID 5A04F208
REM COMMENT "ExactAudioCopy v1.3"
PERFORMER "Chris Connor"
TITLE "Chris Connor Sings Lullabys for Lovers"
FILE "01 - Lush Life.wav" WAVE
  TRACK 01 AUDIO
    TITLE "Lush Life"
    PERFORMER "Chris Connor"
    ISRC QMSGD1370036
    INDEX 01 00:00:00
FILE "02 - Out of This World.wav" WAVE
  TRACK 02 AUDIO
    TITLE "Out of This World"
    PERFORMER "Chris Connor"
    ISRC QMSGD1370037
    INDEX 01 00:00:00
FILE "03 - Cottage for Sale.wav" WAVE
  TRACK 03 AUDIO
    TITLE "Cottage for Sale"
    PERFORMER "Chris Connor"
    ISRC QMSGD1370038
    INDEX 01 00:00:00
FILE "04 - How Long.wav" WAVE
  TRACK 04 AUDIO
    TITLE "How Long?"
    PERFORMER "Chris Connor"
    ISRC QMSGD1370039
    INDEX 01 00:00:00
FILE "05 - Goodbye.wav" WAVE
  TRACK 05 AUDIO
    TITLE "Goodbye"
    PERFORMER "Chris Connor"
    ISRC QMSGD1370040
    INDEX 01 00:00:00
FILE "06 - Stella by Starlight.wav" WAVE
  TRACK 06 AUDIO
    TITLE "Stella by Starlight"
    PERFORMER "Chris Connor"
    ISRC QMSGD1370041
    INDEX 01 00:00:00
FILE "07 - Gone with the Wind.wav" WAVE
  TRACK 07 AUDIO
    TITLE "Gone with the Wind"
    PERFORMER "Chris Connor"
    ISRC QMSGD1370042
    INDEX 01 00:00:00
FILE "08 - He's Coming Home.wav" WAVE
  TRACK 08 AUDIO
    TITLE "He's Coming Home"
    PERFORMER "Chris Connor"
    ISRC QMSGD1370043
    INDEX 01 00:00:00
Лог проверки качества
[CUETools log; Date: 30.12.2018 3:45:36; Version: 2.1.6]
[CTDB TOCID: RNFFUBO0x_CXLoieTumEgWS4xfY-] found.
Track | CTDB Status
  1   | (1/1) Accurately ripped
  2   | (1/1) Accurately ripped
  3   | (1/1) Accurately ripped
  4   | (1/1) Accurately ripped
  5   | (1/1) Accurately ripped
  6   | (1/1) Accurately ripped
  7   | (1/1) Accurately ripped
  8   | (1/1) Accurately ripped
[AccurateRip ID: 0006adb1-002c1e61-5a04f208] found.
Track   [  CRC   |   V2   ] Status
 01     [5c870492|d7899e48] (0+4/4) Accurately ripped
 02     [2eebf868|ff3c0429] (0+4/4) Accurately ripped
 03     [f9e0c907|8c057470] (0+4/4) Accurately ripped
 04     [3114c0b3|82a2e252] (0+4/4) Accurately ripped
 05     [d787ebda|52ae5fca] (0+4/4) Accurately ripped
 06     [36a43037|bbe6e6ff] (0+4/4) Accurately ripped
 07     [e463f4e8|b0c165f9] (0+4/4) Accurately ripped
 08     [1ac4bb5d|200ae450] (0+4/4) Accurately ripped

Track Peak [ CRC32  ] [W/O NULL] [  LOG   ]
 --   84,9 [B05D14B6] [D0D11ED5]
 01   79,1 [6C61C99F] [E3200BA7]   CRC32
 02   84,9 [A4AB130F] [AE08BAAB]   CRC32
 03   75,0 [832B111A] [B84A7202]   CRC32
 04   74,0 [982BE707] [A8F59D68]   CRC32
 05   67,7 [B37DBCF5] [F5B87026]   CRC32
 06   61,9 [66CEE574] [339AAE62]   CRC32
 07   75,7 [DDAD3F33] [23D5DD6D]   CRC32
 08   80,3 [5D0865C0] [F43631C1]   CRC32
Скачивание доступно после регистрации!!
Приватный:
Нет (DHT включён)
Размер:
87.70 Мб (91,957,719 байт) » файлов: 16
Участники:
0 раздают, 0 качают (0 участников всего)
Внешние участники:
--- [ Обновить ]
20:16
57
Нет комментариев. Ваш будет первым!